Ссылка на приватное зеркало нашего сайта всего за 1$. Внимание количество ограничено!!!

2 сезон

iTunes

1 сезон

1

iTunes

iTunes

iTunes

1 сезон

RePack

30

ИГРА 18+

pack

ВАЖНО

!!Акция!!

Alien_RageХит недели

RePack

MK11
pack

Забери бонус

RePack

jed

!!Акция!!

Alien_Rage

RePack

fifa19

RePack

Assassins Creed: Odyssey

RePack

NEED FOR SPEED™ PAYBACK

4 сезон

9 сезон

Бесстыжие 9 сезон

Все сериалы

все сериалы на PB.wtf

RePack

FAR CRY 5
  

Специалист / Сезон: 1 / Серии: 1-8 из 8 (Александр Аншютц) [2019, Детектив, WEB-DL 1080p] pb.wtf

Специалист через торрент pb.wtf

Размер: 17.01 GB | Добавлен: 1 год 8 мес. назад | Торрент скачан:44 раза
Скачать  

28-01-2019 21:32 Специалист Скачать торрент  

СпециалистГод выпуска: 2019
Страна: Россия
Жанр: Детектив
Продолжительность: ~ 00:52:00
Субтитры: отсутствуют

Режиссер: Александр Аншютц



В ролях:

Сергей Жарков, Евгений Дакот, Светлана Брюханова, Анастасия Чепелюк, Александр Герасимов (III), Алёна Новицкая, Николай Шрайбер, Василий Шмаков

Описание:

Дмитрий — «специалист по изъятию», так называемый охотник за головами. Он трудится не щадя себя, чтобы исполнить заветную мечту — поработать в собственной кофейне. За короткий срок Дмитрий выполняет ряд сложных заказов: находит заложников в Германии и Эстонии, спасает похищенную девочку в Турции, обезвреживает группу работорговцев. И каждый раз надеется, что очередной заказ станет последним перед спокойной жизнью. Попутно палки в колеса Специалисту вставляет нечистоплотный конкурент по прозвищу Боцман. Однажды, несмотря на взаимную неприязнь, Специалист и Боцман спасают друг друга и становятся напарниками. Дмитрий по-прежнему надеется уйти из смертельно опасного «бизнеса», но его с напарником ждет прощальный сюрприз…

Качество: WEB-DL 1080p
Формат: MKV

Видео: MPEG4 AVC Video, H264, 16:9, 1920x1080, 25 fps, ~6000 kbps, 0.116 bit/pixel
Аудио: AC3 Dolby Digital, 48.0 kHz, 2/0 (L,R) ch, 192 kbps
скриншот  скриншот  скриншот  

General
Unique ID : 216441191727849763030654293667019048794 (0xA2D50EA6EFCE12CCA99632F54F0D475A)
Complete name : D:\Specialist.2017.WEB-DL.(1080p).Nikolspup\Specialist.(01.seriya.iz.08).2017.WEB-DL.(1080p).Nikolspup.mkv
Format : Matroska
Format version : Version 4 / Version 2
File size : 2.15 GiB
Duration : 49 min 55 s
Overall bit rate mode : Constant
Overall bit rate : 6 172 kb/s
Encoded date : UTC 2019-01-28 21:15:02
Writing application : mkvmerge v7.8.0 ('River Man') 32bit built on Mar 27 2015 16:18:02
Writing library : libebml v1.3.1 + libmatroska v1.4.2

Video
ID : 1
Format : AVC
Format/Info : Advanced Video Codec
Format profile : High@L4.1
Format settings : 2 Ref Frames
Format settings, CABAC : No
Format settings, ReFrames : 2 frames
Codec ID : V_MPEG4/ISO/AVC
Duration : 49 min 54 s
Bit rate mode : Constant
Bit rate : 6 000 kb/s
Width : 1 920 pixels
Height : 1 080 pixels
Display aspect ratio : 16:9
Frame rate mode : Constant
Frame rate : 25.000 FPS
Standard : PAL
Color space : YUV
Chroma subsampling : 4:2:0
Bit depth : 8 bits
Scan type : Progressive
Bits/(Pixel*Frame) : 0.116
Stream size : 2.08 GiB (97%)
Default : Yes
Forced : No
Color range : Limited
Color primaries : BT.709
Transfer characteristics : BT.709
Matrix coefficients : BT.709

Audio
ID : 2
Format : AC-3
Format/Info : Audio Coding 3
Codec ID : A_AC3
Duration : 49 min 55 s
Bit rate mode : Constant
Bit rate : 192 kb/s
Channel(s) : 2 channels
Channel positions : Front: L R
Sampling rate : 48.0 kHz
Frame rate : 31.250 FPS (1536 SPF)
Bit depth : 16 bits
Compression mode : Lossy
Stream size : 68.6 MiB (3%)
Language : Russian
Service kind : Complete Main
Default : Yes
Forced : No

Когда раздача ведётся путём добавления новых серий, при каждом добавлении создётся новый торрент. Чтобы начать докачку новой серии, пользователям необходимо сделать следующее:
(1) остановить скачивание,
(2) удалить старый торрент у себя из клиента (старые серии удалять не надо),
(3) скачать новый торрент и запустить его у себя в клиенте вместо старого, при этом указать клиенту путь в старую папку, куда и должно происходить скачивание новых серий.
Ваш клиент при этом должен произвести хеширование (проверку) старой папки (если не производит сам - помогите ему сделать это), и будет докачивать только те серии, которых у вас ещё нет. Старые серии при этом не удаляются, а продолжают раздаваться!
Eсли вы уже удалили старые серии, то предотвратить повторную закачку старых серий можно, отжав галочку в соответсвующих местах при запуске нового торрента. По возможности, желательно не удалять старые серии как можно дольше, чтобы релизер не столько продолжал раздавать старые серии, а смог сконцентрироваться на новых.
pb.wtf



Скачать Специалист через торрент https://i109.fastpic.ru/big/2019/0128/9c/9ca9d5de6fb1245d555905823e06959c.jpg Скачать фильм Специалист через торрент бесплантно в хорошем качестве Описание: Дмитрий — «специалист по изъятию», так называемый охотник за головами. Он трудится не щадя себя, чтобы исполнить заветную мечту — ... 8.2 10 5
Торрент: Зарегистрирован [2019-02-01 03:51] · скачан: 44 раз
Статус: √ проверено
Размер: 17.01 GB
Как cкачать? Как скачать Специалист через торрент | qTorrent

% Раздел Тема Автор DL S | L
Наши сериалы [ 6.04 GB ] Специалист / Сезон: 1 / Серии: 1-8 из 8 [2019 WEBRip-AVC] bober100 Скачать
1 | 0
Наши сериалы [ 4.96 GB ] Специалист / Сезон: 1 / Серии: 1-8 из 8 [2019 WEB-DLRip] bober100 Скачать
1 | 0
Наши сериалы [ 10.17 GB ] Специалист / Сезон: 1 / Серии: 1-8 из 8 [2019 WEBRip 720p] bober100 Скачать
1 | 0
Наши сериалы [ 4.69 GB ] Специалист / Сезон: 1 / Серии: 1-8 из 8 [2019 SATRip] bober100 Скачать
1 | 0

28-11-2019 20:33  

Отключить всю рекламу на сайте

    Дорогой пользователь! Огромная просьба, поблагодарите релизера, оцените раздачу и оставьте свои комментарий, если Вы скачали Специалист через торрент бесплатно! Внесите свою лепту в развитие PiratBit!
    Комментировать посты могут только пользователи прошедшие не сложную регистрацию
    Показать сообщения:    

    Специалист через торрент
    Скачать бесплатно Специалист
    Специалист скачать торрент
    Специалист смотреть онлайн
    Cкачать фильм Специалист бесплатно
    Специалист скачать торрент в хорошем качестве
    Специалист смотреть онлайн бесплатно в хорошем качестве


    Вы не можете начинать темы
    Вы не можете отвечать на сообщения
    Вы не можете редактировать свои сообщения
    Вы не можете удалять свои сообщения
    Вы не можете голосовать в опросах
    Вы не можете прикреплять файлы к сообщениям
    Вы можете скачивать файлы