Ссылка на приватное зеркало всего за 1$. Внимание количество ограничено!!!

OK

1+1

iTunes

мы

OK

1

WEB-DLRip

Джокер

Пифагор

Ведьмак / The Witcher сериал

iTunes

ПШазам

ОК

Оно 2

iTunes

30
pack

Вам бонус

ВАЖНО

!!Акция!!

Alien_RageХит недели

RePack

Resident Evil 21

ИГРА 18+

pack

RePack

jed

RePack

fifa19

RePack

Assassins Creed: Odyssey

RePack

NEED FOR SPEED™ PAYBACK

4 сезон

9 сезон

Бесстыжие 9 сезон

Все сериалы

все сериалы на PB.wtf

RePack

FAR CRY 5
  

Маленькая ведьма / Die kleine Hexe (Мике Шёрер) [2018, Фэнтези, драма, комедия, семейный, BDRip 1080p] MVO [CВ Студия] pb.wtf

Маленькая ведьма через торрент pb.wtf

Размер: 10.22 GB | Добавлен: 11 мес. назад | Торрент скачан:116 раз
Скачать  

29-01-2019 13:11 Маленькая ведьма Скачать торрент  

Маленькая ведьма / Die kleine Hexe Год выпуска: 2018
Страна: Швейцария, Германия
Жанр: Фэнтези, драма, комедия, семейный
Продолжительность: 01:42:46
Перевод: Профессиональный (многоголосый) | CВ Студия
Субтитры: Русские, немецкие

Режиссер: Мике Шёрер

rating

В ролях:

Каролине Херфурт, Аксель Праль, Луис Форбах, Момо Бейер, Сюзанна фон Борсоди, Барбара Мельцль, Каролин Списс, Эвелин Холл, Тереза Аффолтер, Ангелика Бёттигер

Описание:

Маленькая ведьма очень хочет повеселиться на вечеринке в честь Вальпургиевой ночи, но ей всего 127 лет, поэтому она еще слишком молода для такого мероприятия. Вопреки правилам, упрямая девушка тайком пробирается на праздник, но оказывается пойманной. В наказание ведьме поручают выучить все заклинания из великой магической книги за один год и доказать всем, что она уже взрослая. Однако усердие и трудолюбие не являются сильными сторонами героини, к тому же злая колдунья Румпумпель всеми способами пытается помешать выполнению ее задачи...

Качество: BDRip 1080p
Формат: MKV

Видео: MPEG-4 AVC, 1920х802 at 24.000 fps, ~ 11211 kbps avg
Аудио#1: Russian: 48 kHz/24-bit, DTS 5.1, (L,C,R,l,r) + LFE ch, ~1509 kbps avg
Аудио#2: German: 48 kHz/24-bit, DTS 5.1, (L,C,R,l,r) + LFE ch, ~1509 kbps avg
скриншот  скриншот  скриншот  скриншот  скриншот  

General
Unique ID : 135164380808704608285785568276564994696 (0x65AFB67CC636F9DE9E27AB678DCCEA88)
Complete name : I:Die.kleine.Hexe.2018.1080p.Bluray.Rus.Ger.SbR.mkv
Format : Matroska
Format version : Version 4
File size : 10.2 GiB
Duration : 1 h 42 min
Overall bit rate : 14.2 Mb/s
Encoded date : UTC 2019-01-28 21:20:58
Writing application : mkvmerge v28.2.0 ('The Awakening') 64-bit
Writing library : libebml v1.3.6 + libmatroska v1.4.9
Cover : Yes
Attachments : cover.jpg

Video
ID : 1
Format : AVC
Format/Info : Advanced Video Codec
Format profile : High@L4.1
Format settings : CABAC / 5 Ref Frames
Format settings, CABAC : Yes
Format settings, ReFrames : 5 frames
Codec ID : V_MPEG4/ISO/AVC
Duration : 1 h 42 min
Bit rate : 11.2 Mb/s
Width : 1 920 pixels
Height : 802 pixels
Display aspect ratio : 2.40:1
Frame rate mode : Constant
Frame rate : 24.000 FPS
Color space : YUV
Chroma subsampling : 4:2:0
Bit depth : 8 bits
Scan type : Progressive
Bits/(Pixel*Frame) : 0.303
Stream size : 8.05 GiB (79%)
Writing library : x264 core 152 r2851kMod ba24899
Encoding settings : cabac=1 / ref=5 / deblock=1:-3:-3 / analyse=0x3:0x133 / me=umh / subme=10 / psy=1 / fade_compensate=0.00 / psy_rd=1.03:0.00 / mixed_ref=1 / me_range=32 / chroma_me=1 / trellis=2 / 8x8dct=1 / cqm=0 / deadzone=21,11 / fast_pskip=0 / chroma_qp_offset=-2 / threads=6 / lookahead_threads=1 / sliced_threads=0 / nr=0 / decimate=1 / interlaced=0 / bluray_compat=0 / constrained_intra=0 / bframes=8 / b_pyramid=2 / b_adapt=2 / b_bias=0 / direct=3 / weightb=1 / open_gop=0 / weightp=2 / keyint=250 / keyint_min=24 / scenecut=40 / intra_refresh=0 / rc=crf / mbtree=0 / crf=17.1000 / qcomp=0.63 / qpmin=0 / qpmax=69 / qpstep=4 / ip_ratio=1.30 / pb_ratio=1.20 / aq=1:0.80
Language : English
Default : Yes
Forced : No
Color range : Limited
Matrix coefficients : BT.709

Audio #1
ID : 2
Format : DTS
Format/Info : Digital Theater Systems
Codec ID : A_DTS
Duration : 1 h 42 min
Bit rate mode : Constant
Bit rate : 1 509 kb/s
Channel(s) : 6 channels
Channel layout : C L R Ls Rs LFE
Sampling rate : 48.0 kHz
Frame rate : 93.750 FPS (512 SPF)
Bit depth : 24 bits
Compression mode : Lossy
Stream size : 1.08 GiB (11%)
Title : MVO СВ Студия
Language : Russian
Default : Yes
Forced : No

Audio #2
ID : 3
Format : DTS
Format/Info : Digital Theater Systems
Codec ID : A_DTS
Duration : 1 h 42 min
Bit rate mode : Constant
Bit rate : 1 509 kb/s
Channel(s) : 6 channels
Channel layout : C L R Ls Rs LFE
Sampling rate : 48.0 kHz
Frame rate : 93.750 FPS (512 SPF)
Bit depth : 24 bits
Compression mode : Lossy
Stream size : 1.08 GiB (11%)
Language : German
Default : No
Forced : No

Text #1
ID : 4
Format : UTF-8
Codec ID : S_TEXT/UTF8
Codec ID/Info : UTF-8 Plain Text
Duration : 1 h 36 min
Bit rate : 73 b/s
Count of elements : 874
Stream size : 52.0 KiB (0%)
Language : Russian
Default : No
Forced : No

Text #2
ID : 5
Format : UTF-8
Codec ID : S_TEXT/UTF8
Codec ID/Info : UTF-8 Plain Text
Duration : 1 h 37 min
Bit rate : 45 b/s
Count of elements : 934
Stream size : 32.6 KiB (0%)
Language : German
Default : No
Forced : No

Text #3
ID : 6
Format : UTF-8
Codec ID : S_TEXT/UTF8
Codec ID/Info : UTF-8 Plain Text
Duration : 1 h 37 min
Bit rate : 56 b/s
Count of elements : 1202
Stream size : 40.7 KiB (0%)
Title : SDH
Language : German
Default : No
Forced : No

Menu
00:00:00.000 : :00:00:00.000
00:08:21.665 : :00:08:21.665
00:19:04.665 : :00:19:04.665
00:28:19.415 : :00:28:19.415
00:37:56.875 : :00:37:56.875
00:50:39.083 : :00:50:39.083
01:01:43.750 : :01:01:43.750
01:13:47.916 : :01:13:47.916
01:23:35.082 : :01:23:35.082
01:33:07.750 : :01:33:07.750

pb.wtf



Скачать Маленькая ведьма через торрент https://a.radikal.ru/a12/1901/51/d2feea21469e.png Скачать фильм Маленькая ведьма через торрент бесплантно в хорошем качестве Описание: Маленькая ведьма очень хочет повеселиться на вечеринке в честь Вальпургиевой ночи, но ей всего 127 лет, поэтому она еще слишком ... 10 10 5
Торрент: Зарегистрирован [2019-01-29 13:11] · скачан: 116 раз
Статус: √ проверено
Размер: 10.22 GB
Как cкачать? Как скачать Маленькая ведьма через торрент | qTorrent

% Раздел Тема Автор DL S | L
Фильмы 2018 [DVDrip, WEB-DLRip, HDrip] (DUB, MVO) [ 1.46 GB ] Маленькая ведьма / Die kleine Hexe [2018 BDRip] MVO [CВ Студия] bober100 Скачать
1 | 0
Фильмы [HD 720p, 1080p] (Хороший звук DUB, MVO) [ 4.32 GB ] Маленькая ведьма / Die kleine Hexe [2018 BDRip 720p] MVO [CВ Студия] bober100 Скачать
1 | 0
Фильмы (Blu-ray, BD-Remux, HDDVD) [ 19.57 GB ] Маленькая ведьма / Die kleine Hexe [2018 BD Remux 1080p] MVO [CВ Студия] bober100 Скачать
1 | 0
T Фильмы (WEB-DL 720p, 1080p) [ 4.56 GB ] Маленькая ведьма / Маленькая Баба-Яга / Die kleine Hexe [2018 WEB-DLRip 720p] [MVO] killermax2013 Скачать
2 | 0
T Фильмы 2018 [DVDrip, WEB-DLRip, HDrip] (DUB, MVO) [ 1.46 GB ] Маленькая ведьма / Маленькая Баба-Яга / Die kleine Hexe / The Little Witch [2018 WEB-DLRip] [MVO] killermax2013 Скачать
6 | 0

28-11-2019 20:33  

Отключить всю рекламу на сайте


    Дорогой пользователь! Огромная просьба, поблагодарите релизера, оцените раздачу и оставьте свои комментарий, если Вы скачали Маленькая ведьма через торрент бесплатно! Внесите свою лепту в развитие PiratBit!
    Комментировать посты могут только пользователи прошедшие не сложную регистрацию
    Показать сообщения:    

    Маленькая ведьма через торрент
    Скачать бесплатно Маленькая ведьма
    Маленькая ведьма скачать торрент
    Маленькая ведьма смотреть онлайн
    Cкачать фильм Маленькая ведьма бесплатно
    Маленькая ведьма скачать торрент в хорошем качестве
    Маленькая ведьма смотреть онлайн бесплатно в хорошем качестве


    Вы не можете начинать темы
    Вы не можете отвечать на сообщения
    Вы не можете редактировать свои сообщения
    Вы не можете удалять свои сообщения
    Вы не можете голосовать в опросах
    Вы не можете прикреплять файлы к сообщениям
    Вы можете скачивать файлы