новый адрес
Ссылка на приватное зеркало всего за 1$. Внимание количество ограничено!!!

iTunes

1+1

iTunes

мы

WEB-DL

1

iTunes

Чернобыль

iTunes

Ральф против интернета

Лицензия

ПШазам

Лицензия

Оно 2

Лицензия

30
pack

Вам бонус

ВАЖНО

!!Акция!!

Alien_RageХит недели

RePack

Resident Evil 21

ИГРА 18+

pack

RePack

jed

!!Акция!!

Alien_Rage

RePack

fifa19

RePack

Assassins Creed: Odyssey

RePack

NEED FOR SPEED™ PAYBACK

3 сезон

9 сезон

Бесстыжие 9 сезон

Все сериалы

все сериалы на PB.wtf

RePack

FAR CRY 5
Ребята, катастрофически не хватает 1900р. для оплаты серверов за Октябрь (всвязи с блокировками трафик упал в 3 раза), 1-2р., выручайте.
  

Девушка, которая застряла в паутине / The Girl in the Spider's Web (Федерико Альварес) [2018, боевик, триллер, драма, BDRip-AVC] DUB [iTunes] pb.wtf

Девушка, которая застряла в паутине через торрент pb.wtf

Раздают: 1 [ 0 KB/s ]
Размер: 747 MB | Добавлен: 10 мес. назад | Торрент скачан:86 раз
Скачать  

30-01-2019 02:40 Девушка, которая застряла в паутине Скачать торрент  

Девушка, которая застряла в паутине / The Girl in the Spider's Web«Новая история о Девушке с татуировкой дракона»

Год выпуска: 2018
Страна: Великобритания, Германия, Швеция, Канада, США
Жанр: боевик, триллер, драма, криминал
Продолжительность: 01:55:24
Перевод: Дублированный [iTunes]
Субтитры: Русские (полные, форсированные)
Режиссер: Федерико Альварес
В ролях:

Клер Фой (Lisbeth Salander), Сверрир Гуднасон (Mikael Blomkvist), Бо Гадсдон (Young Lisbeth Salander), Лакит Стэнфилд (Ed Needham), Сильвия Хукс (Camilla Salander), Карлотта фон Фалькенхайн (Young Camilla Salander), Стивен Мерчант (Frans Balder), Кристофер Конвери (August Balder), Клас Банг (Jan Holtser), Сюннёве Макоди Лунд (Gabriella Grane), Камерон Бриттон (Plague), Вики Крипс (Erika Berger)
Описание:
Фильм является продолжением голливудской и современной экранизации серии детективных книг бестселлеров "Миллениум" Стига Ларсона и продолжателя его дела писателя Дэвида Лагеркранца. На этот раз журналист Микаэль Блумквист и его партнёрша - хакерша Лисбет Саландер втягиваются в очередную шпионскую историю, снова объединяясь для общего расследования. А ведь их пути давно разошлись...
Рейтинг:

MPAA: R - Лицам до 17 лет обязательно присутствие взрослого
Качество: BDRip-AVC
Формат: MKV
Видео: 720x302 (2.40:1), 23,976 fps, x264 ~831 kbps avg, 0.159 bit/pixel
Аудио: 48 kHz, HE-AAC, 2 (L,R) ch, ~72.00 kbps avg | RUS (iTunes)
Навигация по главам: есть
Общее
Уникальный идентификатор : 38770046508363895554932881073301487925 (0x1D2AD6DFBEA9D1A4AD1F684D7A9A0135)
Полное имя : F:OlLanDGroupThe.Girl.in.the.Spider's.Web.2018.BDRip(AVC).OlLanDGroup.mkv
Формат : Matroska
Версия формата : Version 4 / Version 2
Размер файла : 747 Мбайт
Продолжительность : 1 ч. 55 м.
Общий поток : 905 Кбит/сек
Название фильма : The.Girl.in.the.Spider's.Web.2018 #TorpedoUK#
Дата кодирования : UTC 2019-01-30 00:50:18
Программа кодирования : mkvmerge v29.0.0 ('Like It Or Not') 64-bit
Библиотека кодирования : libebml v1.3.6 + libmatroska v1.4.9

Видео
Идентификатор : 1
Формат : AVC
Формат/Информация : Advanced Video Codec
Профиль формата : High@L4.1
Параметр CABAC формата : Да
Параметр ReFrames формата : 10 кадров
Идентификатор кодека : V_MPEG4/ISO/AVC
Продолжительность : 1 ч. 55 м.
Битрейт : 831 Кбит/сек
Ширина : 720 пикселей
Высота : 302 пикселя
Соотношение сторон : 2,40:1
Режим частоты кадров : Постоянный
Частота кадров : 23,976 (24000/1001) кадра/сек
Цветовое пространство : YUV
Субдискретизация насыщенности : 4:2:0
Битовая глубина : 8 бит
Тип развёртки : Прогрессивная
Бит/(Пиксели*Кадры) : 0.159
Размер потока : 686 Мбайт (92%)
Библиотека кодирования : x264 core 146 r2538 121396c
Настройки программы : cabac=1 / ref=10 / deblock=1:-3:-3 / analyse=0x3:0x113 / me=umh / subme=11 / psy=1 / psy_rd=0.99:0.04 / mixed_ref=1 / me_range=48 / chroma_me=1 / trellis=2 / 8x8dct=1 / cqm=0 / deadzone=21,11 / fast_pskip=1 / chroma_qp_offset=-3 / threads=6 / lookahead_threads=1 / sliced_threads=0 / nr=0 / decimate=1 / interlaced=0 / bluray_compat=0 / constrained_intra=0 / bframes=11 / b_pyramid=2 / b_adapt=2 / b_bias=0 / direct=3 / weightb=1 / open_gop=0 / weightp=2 / keyint=240 / keyint_min=23 / scenecut=40 / intra_refresh=0 / rc_lookahead=40 / rc=2pass / mbtree=0 / bitrate=831 / ratetol=1.0 / qcomp=0.60 / qpmin=0 / qpmax=69 / qpstep=4 / cplxblur=20.0 / qblur=0.5 / vbv_maxrate=50000 / vbv_bufsize=62500 / nal_hrd=none / filler=0 / ip_ratio=1.40 / pb_ratio=1.30 / aq=1:1.00
Default : Да
Forced : Нет

Аудио
Идентификатор : 2
Формат : AAC
Формат/Информация : Advanced Audio Codec
Профиль формата : HE-AAC / LC
Идентификатор кодека : A_AAC
Продолжительность : 1 ч. 55 м.
Битрейт : 72,0 Кбит/сек
Каналы : 2 канала
Расположение каналов : Front: L R
Частота : 48,0 КГц / 24,0 КГц
Частота кадров : 23,438 кадра/сек (1024 spf)
Метод сжатия : С потерями
Задержка видео : 31 мс.
Размер потока : 59,4 Мбайт (8%)
Заголовок : DUB [iTunes]
Язык : Russian
Default : Да
Forced : Нет

Текст #1
Идентификатор : 3
Формат : UTF-8
Идентификатор кодека : S_TEXT/UTF8
Идентификатор кодека/Информация : UTF-8 Plain Text
Продолжительность : 1 ч. 51 м.
Битрейт : 0 бит/сек
Count of elements : 14
Размер потока : 732 байт (0%)
Заголовок : Forced
Язык : Russian
Default : Да
Forced : Нет

Текст #2
Идентификатор : 4
Формат : UTF-8
Идентификатор кодека : S_TEXT/UTF8
Идентификатор кодека/Информация : UTF-8 Plain Text
Продолжительность : 1 ч. 53 м.
Битрейт : 38 бит/сек
Count of elements : 731
Размер потока : 32,0 Кбайт (0%)
Заголовок : Full
Язык : Russian
Default : Нет
Forced : Нет

Меню
00:00:00.000 : :Глава 01
00:10:23.914 : :Глава 02
00:16:32.866 : :Глава 03
00:21:05.430 : :Глава 04
00:27:34.444 : :Глава 05
00:34:20.058 : :Глава 06
00:41:41.040 : :Глава 07
00:48:24.318 : :Глава 08
00:58:39.182 : :Глава 09
01:05:56.827 : :Глава 10
01:10:31.977 : :Глава 11
01:20:03.924 : :Глава 12
01:27:18.900 : :Глава 13
01:35:05.533 : :Глава 14
01:38:04.128 : :Глава 15
01:43:16.565 : :Глава 16
pb.wtf



Скачать Девушка, которая застряла в паутине через торрент https://a.radikal.ru/a16/1901/2c/9a762abb6fc1.png Скачать фильм Девушка, которая застряла в паутине через торрент бесплантно в хорошем качестве Описание: Фильм является продолжением голливудской и современной экранизации серии детективных книг бестселлеров "Миллениум" Стига Ларсона ... 10 10 4
Торрент: Зарегистрирован [2019-01-30 02:40] · скачан: 86 раз
Статус: √ проверено
Размер: 747 MB
Как cкачать? Как скачать Девушка, которая застряла в паутине через торрент | qTorrent

28-11-2019 20:33  

Отключить всю рекламу на сайте

    Дорогой пользователь! Огромная просьба, поблагодарите релизера, оцените раздачу и оставьте свои комментарий, если Вы скачали Девушка, которая застряла в паутине через торрент бесплатно! Внесите свою лепту в развитие PiratBit!
    Комментировать посты могут только пользователи прошедшие не сложную регистрацию
    Показать сообщения:    

    Девушка, которая застряла в паутине через торрент
    Скачать бесплатно Девушка, которая застряла в паутине
    Девушка, которая застряла в паутине скачать торрент
    Девушка, которая застряла в паутине смотреть онлайн
    Cкачать фильм Девушка, которая застряла в паутине бесплатно
    Девушка, которая застряла в паутине скачать торрент в хорошем качестве
    Девушка, которая застряла в паутине смотреть онлайн бесплатно в хорошем качестве


    Вы не можете начинать темы
    Вы не можете отвечать на сообщения
    Вы не можете редактировать свои сообщения
    Вы не можете удалять свои сообщения
    Вы не можете голосовать в опросах
    Вы не можете прикреплять файлы к сообщениям
    Вы можете скачивать файлы