новый адрес
Ссылка на приватное зеркало всего за 1$. Внимание количество ограничено!!!

iTunes

1+1

iTunes

мы

WEB-DL

1

iTunes

Чернобыль

iTunes

Ральф против интернета

Лицензия

ПШазам

Лицензия

Оно 2

Лицензия

30
pack

Вам бонус

ВАЖНО

!!Акция!!

Alien_RageХит недели

RePack

Resident Evil 21

ИГРА 18+

pack

RePack

jed

!!Акция!!

Alien_Rage

RePack

fifa19

RePack

Assassins Creed: Odyssey

RePack

NEED FOR SPEED™ PAYBACK

3 сезон

9 сезон

Бесстыжие 9 сезон

Все сериалы

все сериалы на PB.wtf

RePack

FAR CRY 5
Ребята, катастрофически не хватает 1900р. для оплаты серверов за Октябрь (всвязи с блокировками трафик упал в 3 раза), 1-2р., выручайте.
  

Девушка, которая застряла в паутине / The Girl in the Spider's Web (Федерико Альварес) [2018, триллер, драма, криминал, BDRip-AVC] DUB [Лицензия] - ExKinoRay pb.wtf

Девушка, которая застряла в паутине через торрент pb.wtf

Размер: 2.47 GB | Добавлен: 9 мес. назад | Торрент скачан:82 раза
Скачать  

30-01-2019 04:46 Девушка, которая застряла в паутине Скачать торрент  

Информация о фильме
Название: Девушка, которая застряла в паутине
Оригинальное название: The Girl in the Spider's Web
Год выпуска: 2018
Жанр: Триллер, драма, криминал
Режиссер: Федерико Альварес
В ролях: Клер Фой, Сверрир Гуднасон, Бо Гадсдон, Сильвия Хукс, Лакит Стэнфилд, Карлотта фон Фалькенхайн, Стивен Мерчант, Кристофер Конвери, Сюннёве Макоди Лунд, Клас Банг, Камерон Бриттон, Вики Крипс, Андреа Пежич, Фолькер Брух, Микаэл Персбрандт, Томас Вингрих, Андреас Тиц, Паула Шрамм, Пол Сверре Валхейм Хаген

Описание:
Хакер Лисбет Саландер и журналист Микаэль Блумквист оказываются втянуты в историю с участием шпионов, киберпреступников и коррумпированных чиновников.



Страна: Великобритания, Германия, Швеция, Канада, США
Студия: Metro-Goldwyn-Mayer (MGM), New Regency Pictures
Продолжительность: 01:55:25
Перевод: Дублированный | Лицензия

Формат: MKV
Качество: BDRip-AVC
Видео: MPEG-4 AVC, 1024x428 (2.40:1), 23.976 fps, 1582 Kbps, 0.152 bit/pixel
Звук:
Аудио #01: 48 kHz, AC3, 5.1, 448 Kbps | iTunes | RUS |
Аудио #02: 48 kHz, AC3, 5.1, 448 Kbps | iTunes | UKR |
Аудио #03: 48 kHz, АС3, 5.1, 448 Kbps | Оригинал | ENG |
Субтитры: Русские (Forced, full), украинские (Full), английские
General
Unique ID : 195407699366351269022255740925913437207 (0x93022769BFAC520F85B1B4F5E3519417)
Complete name : D:\The.Girl.in.the.Spiders.Web.2018.BDRip.AVC.ExKinoRay.mkv
Format : Matroska
Format version : Version 2
File size : 2.47 GiB
Duration : 1 h 55 min
Overall bit rate : 3 066 kb/s
Movie name : The Girl in the Spider's Web (2018) from ExKinoRay
Encoded date : UTC 2019-03-02 00:30:24
Writing application : mkvmerge v5.6.0 ('Kenya Kane') built on May 27 2012 16:44:04
Writing library : libebml v1.2.3 + libmatroska v1.3.0

Video
ID : 1
Format : AVC
Format/Info : Advanced Video Codec
Format profile : High@L4.1
Format settings, CABAC : Yes
Format settings, ReFrames : 12 frames
Codec ID : V_MPEG4/ISO/AVC
Duration : 1 h 55 min
Bit rate : 1 720 kb/s
Width : 1 024 pixels
Height : 428 pixels
Display aspect ratio : 2.40:1
Frame rate mode : Constant
Frame rate : 23.976 (23976/1000) FPS
Color space : YUV
Chroma subsampling : 4:2:0
Bit depth : 8 bits
Scan type : Progressive
Bits/(Pixel*Frame) : 0.164
Stream size : 1.34 GiB (54%)
Title : Enigma
Writing library : x264 core 152 r2851 ba24899
Encoding settings : cabac=1 / ref=12 / deblock=1:-2:-2 / analyse=0x3:0x113 / me=umh / subme=10 / psy=1 / psy_rd=1.02:0.05 / mixed_ref=1 / me_range=32 / chroma_me=1 / trellis=2 / 8x8dct=1 / cqm=0 / deadzone=21,11 / fast_pskip=0 / chroma_qp_offset=-3 / threads=12 / lookahead_threads=3 / sliced_threads=0 / nr=0 / decimate=0 / interlaced=0 / bluray_compat=0 / constrained_intra=0 / bframes=10 / b_pyramid=2 / b_adapt=2 / b_bias=0 / direct=3 / weightb=1 / open_gop=0 / weightp=2 / keyint=240 / keyint_min=23 / scenecut=40 / intra_refresh=0 / rc=2pass / mbtree=0 / bitrate=1720 / ratetol=1.0 / qcomp=0.60 / qpmin=0 / qpmax=51 / qpstep=4 / cplxblur=20.0 / qblur=0.5 / ip_ratio=1.40 / pb_ratio=1.30 / aq=1:1.00
Language : English
Default : Yes
Forced : No
Color range : Limited
Color primaries : BT.709
Transfer characteristics : BT.709
Matrix coefficients : BT.709

Audio #1
ID : 2
Format : AC-3
Format/Info : Audio Coding 3
Mode extension : CM (complete main)
Format settings, Endianness : Big
Codec ID : A_AC3
Duration : 1 h 55 min
Bit rate mode : Constant
Bit rate : 448 kb/s
Channel(s) : 6 channels
Channel positions : Front: L C R, Side: L R, LFE
Sampling rate : 48.0 kHz
Frame rate : 31.250 FPS (1536 spf)
Compression mode : Lossy
Stream size : 370 MiB (15%)
Title : Dub (Blu-Ray)
Language : Russian
Default : Yes
Forced : No

Audio #2
ID : 3
Format : AC-3
Format/Info : Audio Coding 3
Mode extension : CM (complete main)
Format settings, Endianness : Big
Codec ID : A_AC3
Duration : 1 h 55 min
Bit rate mode : Constant
Bit rate : 448 kb/s
Channel(s) : 6 channels
Channel positions : Front: L C R, Side: L R, LFE
Sampling rate : 48.0 kHz
Frame rate : 31.250 FPS (1536 spf)
Compression mode : Lossy
Stream size : 370 MiB (15%)
Title : License
Language : Ukrainian
Default : No
Forced : No

Audio #3
ID : 4
Format : AC-3
Format/Info : Audio Coding 3
Mode extension : CM (complete main)
Format settings, Endianness : Big
Codec ID : A_AC3
Duration : 1 h 55 min
Bit rate mode : Constant
Bit rate : 448 kb/s
Channel(s) : 6 channels
Channel positions : Front: L C R, Side: L R, LFE
Sampling rate : 48.0 kHz
Frame rate : 31.250 FPS (1536 spf)
Compression mode : Lossy
Stream size : 370 MiB (15%)
Language : English
Default : No
Forced : No

Text #1
ID : 5
Format : UTF-8
Codec ID : S_TEXT/UTF8
Codec ID/Info : UTF-8 Plain Text
Title : Forced
Language : Russian
Default : Yes
Forced : No

Text #2
ID : 6
Format : UTF-8
Codec ID : S_TEXT/UTF8
Codec ID/Info : UTF-8 Plain Text
Title : Full
Language : Russian
Default : No
Forced : No

Text #3
ID : 7
Format : UTF-8
Codec ID : S_TEXT/UTF8
Codec ID/Info : UTF-8 Plain Text
Title : Full
Language : Ukrainian
Default : No
Forced : No

Text #4
ID : 8
Format : UTF-8
Codec ID : S_TEXT/UTF8
Codec ID/Info : UTF-8 Plain Text
Title : Full
Language : English
Default : No
Forced : No

Menu
00:00:00.000 : en:Chapter 01
00:10:23.915 : en:Chapter 02
00:16:32.867 : en:Chapter 03
00:21:05.431 : en:Chapter 04
00:27:34.444 : en:Chapter 05
00:34:20.058 : en:Chapter 06
00:41:41.040 : en:Chapter 07
00:48:24.318 : en:Chapter 08
00:58:39.182 : en:Chapter 09
01:05:56.828 : en:Chapter 10
01:10:31.978 : en:Chapter 11
01:20:03.924 : en:Chapter 12
01:27:18.900 : en:Chapter 13
01:35:05.533 : en:Chapter 14
01:38:04.128 : en:Chapter 15
01:43:16.565 : en:Chapter 16
Релиз от:

Автор релиза: pb.wtf



Скачать Девушка, которая застряла в паутине через торрент https://d.radikal.ru/d05/1901/e7/0d55f9d6962c.png Скачать фильм Девушка, которая застряла в паутине через торрент бесплантно в хорошем качестве Описание: Хакер Лисбет Саландер и журналист Микаэль Блумквист оказываются втянуты в историю с участием шпионов, киберпреступников и ... 9.7 10 9
Info! Золотая раздача, скачанное не засчитывается.
Торрент: Зарегистрирован [2019-03-02 01:18] · скачан: 82 раз
Статус: √ проверено
Размер: 2.47 GB
Как cкачать? Как скачать Девушка, которая застряла в паутине через торрент | qTorrent



Последний раз редактировалось: Enigma2010 (2019-03-02 01:16), всего редактировалось 2 раз(а)

28-11-2019 20:33  

Отключить всю рекламу на сайте

02-02-2019 12:35 Девушка, которая застряла в паутине Скачать торрент  

Очередной голливудский шлак про плохих русских мечтающих уничтожить весь мир и пиндосов которые в очередной раз спасают его.pb.wtf



06-02-2019 06:19 Девушка, которая застряла в паутине Скачать торрент  

фильм , посмотрел половину и выключил, тупизм полныйpb.wtf



06-02-2019 09:13 Девушка, которая застряла в паутине Скачать торрент  

хреньpb.wtf



02-03-2019 01:18 Девушка, которая застряла в паутине Скачать торрент  

Замена на лицензию.pb.wtf



03-03-2019 17:33 Девушка, которая застряла в паутине Скачать торрент  

pb.wtf



    Дорогой пользователь! Огромная просьба, поблагодарите релизера, оцените раздачу и оставьте свои комментарий, если Вы скачали Девушка, которая застряла в паутине через торрент бесплатно! Внесите свою лепту в развитие PiratBit!
    Комментировать посты могут только пользователи прошедшие не сложную регистрацию
    Показать сообщения:    

    Девушка, которая застряла в паутине через торрент
    Скачать бесплатно Девушка, которая застряла в паутине
    Девушка, которая застряла в паутине скачать торрент
    Девушка, которая застряла в паутине смотреть онлайн
    Cкачать фильм Девушка, которая застряла в паутине бесплатно
    Девушка, которая застряла в паутине скачать торрент в хорошем качестве
    Девушка, которая застряла в паутине смотреть онлайн бесплатно в хорошем качестве


    Вы не можете начинать темы
    Вы не можете отвечать на сообщения
    Вы не можете редактировать свои сообщения
    Вы не можете удалять свои сообщения
    Вы не можете голосовать в опросах
    Вы не можете прикреплять файлы к сообщениям
    Вы можете скачивать файлы