Ссылка на приватное зеркало нашего сайта всего за 1$. Внимание количество ограничено!!!

2 сезон

iTunes

1 сезон

1

2 сезон

2 сезон

iTunes

1 сезон

RePack

30

Новинка

ВАЖНО

ИГРА 18+

pack

RePack

MK11
pack

Забери бонус

RePack

jed

!!Акция!!

Alien_Rage

RePack

fifa19

RePack

Assassins Creed: Odyssey

RePack

NEED FOR SPEED™ PAYBACK

4 сезон

9 сезон

Бесстыжие 9 сезон

Все сериалы

все сериалы на PB.wtf

RePack

FAR CRY 5
  

Готэм / Gotham / Сезон: 5 / Серии: 1-12 из 12 (Дэнни Кэннон, Т.Дж. Скотт, Роб Бэйли) [2019, Триллер, драма, криминал, WEBRip 1080p] [MVO] (TVShows) pb.wtf

Готэм через торрент pb.wtf

Размер: 24.99 GB | Добавлен: 1 год 6 мес. назад | Торрент скачан:6 раз
Скачать  

30-01-2019 09:35 Готэм Скачать торрент  

Готэм | Gotham
Год выпуска: 2019
Страна: США
Жанр: Фантастика, боевик, триллер, драма, криминал, детектив
Продолжительность: ~ 00:45:00
Перевод: Профессиональный (многоголосый закадровый) | TVShows
Режиссёр: Дэнни Кэннон, Роб Бэйли, Т.Дж. Скотт

В ролях: Бен МакКензи, Шон Пертуи, Робин Тейлор, Забрина Гевара, Эрин Ричардс, Донал Лог, Джада Пинкетт Смит, Дэвид Мазоуз, Камрен Бикондова, Кори Майкл Смит и др.
Описание: События первых серий пятого сезона по-прежнему будут основаны на популярной серии комиксов «Ничья земля». Когда правительство откажется помогать жителям Готэма, город погрузится в пучину хаоса. За несколько месяцев с начала блокады остров поделится на районы, контролируемые различными преступными группировками. Барбара Кин начнёт собирать женскую армию, Айви разместится в центральном парке, а Пингвин превратится в настоящего оружейного барона и сделает своей резиденцией городскую ратушу.

rating
Качество: WEBRip 1080p
Формат: MKV
Видео: AVC, 1920x1080 (16:9), 23.976 fps, ~ 6217 kbps
Аудио №1: AC3, 48,0 kHz, 6 ch, 384 kbps | TVShows
Аудио №2: E-AC3, 48,0 kHz, 6 ch, 640 kbps | Original
Субтитры: Английские
General
Unique ID : 299261112908167425181358831085380252936 (0xE1239806D1A6B54035B8B3E56AC93508)
Complete name : C:\Users\вов\Desktop\Gotham.S05.1080p.TVShows\Gotham.S05E01.1080p.TVShows.mkv
Format : Matroska
Format version : Version 4 / Version 2
File size : 2.23 GiB
Duration : 44 min 24 s
Overall bit rate : 7 176 kb/s
Encoded date : UTC 2019-01-22 14:19:10
Writing application : mkvmerge v29.0.0 ('Like It Or Not') 64-bit
Writing library : libebml v1.3.6 + libmatroska v1.4.9

Video
ID : 1
Format : AVC
Format/Info : Advanced Video Codec
Format profile : High@L4
Format settings : CABAC / 4 Ref Frames
Format settings, CABAC : Yes
Format settings, ReFrames : 4 frames
Codec ID : V_MPEG4/ISO/AVC
Duration : 43 min 57 s
Bit rate : 6 217 kb/s
Width : 1 920 pixels
Height : 1 080 pixels
Display aspect ratio : 16:9
Frame rate mode : Constant
Frame rate : 23.976 (24000/1001) FPS
Color space : YUV
Chroma subsampling : 4:2:0
Bit depth : 8 bits
Scan type : Progressive
Bits/(Pixel*Frame) : 0.125
Stream size : 1.91 GiB (86%)
Default : Yes
Forced : No
Color range : Limited
Color primaries : BT.709
Transfer characteristics : BT.709
Matrix coefficients : BT.709

Audio #1
ID : 2
Format : AC-3
Format/Info : Audio Coding 3
Codec ID : A_AC3
Duration : 44 min 24 s
Bit rate mode : Constant
Bit rate : 384 kb/s
Channel(s) : 6 channels
Channel positions : Front: L C R, Side: L R, LFE
Sampling rate : 48.0 kHz
Frame rate : 31.250 FPS (1536 SPF)
Bit depth : 16 bits
Compression mode : Lossy
Stream size : 122 MiB (5%)
Title : TVShows
Language : Russian
Service kind : Complete Main
Default : Yes
Forced : Yes

Audio #2
ID : 3
Format : E-AC-3
Format/Info : Enhanced Audio Coding 3
Codec ID : A_EAC3
Duration : 43 min 57 s
Bit rate mode : Constant
Bit rate : 640 kb/s
Channel(s) : 6 channels
Channel positions : Front: L C R, Side: L R, LFE
Sampling rate : 48.0 kHz
Frame rate : 187.500 FPS (256 SPF)
Compression mode : Lossy
Stream size : 201 MiB (9%)
Title : Original
Language : English
Service kind : Complete Main
Default : No
Forced : No

Text
ID : 4
Format : UTF-8
Codec ID : S_TEXT/UTF8
Codec ID/Info : UTF-8 Plain Text
Duration : 43 min 7 s
Bit rate : 63 b/s
Count of elements : 754
Stream size : 19.9 KiB (0%)
Title : English
Language : English
Default : No
Forced : No
скриншот  скриншот  скриншот  
Когда раздача ведётся путём добавления новых серий, при каждом добавлении создётся новый торрент. Чтобы начать докачку новой серии, пользователям необходимо сделать следующее:
(1) остановить скачивание,
(2) удалить старый торрент у себя из клиента (старые серии удалять не надо),
(3) скачать новый торрент и запустить его у себя в клиенте вместо старого, при этом указать клиенту путь в старую папку, куда и должно происходить скачивание новых серий.
Ваш клиент при этом должен произвести хеширование (проверку) старой папки (если не производит сам - помогите ему сделать это), и будет докачивать только те серии, которых у вас ещё нет. Старые серии при этом не удаляются, а продолжают раздаваться!
Eсли вы уже удалили старые серии, то предотвратить повторную закачку старых серий можно, отжав галочку в соответсвующих местах при запуске нового торрента. По возможности, желательно не удалять старые серии как можно дольше, чтобы релизёр не столько продолжал раздавать старые серии, а смог сконцентрироваться на новых.
pb.wtf



Скачать Готэм через торрент https://a.radikal.ru/a16/1901/70/fbc185439881.png Скачать фильм Готэм через торрент бесплантно в хорошем качестве Описание: События первых серий пятого сезона по-прежнему будут основаны на популярной серии комиксов «Ничья земля». Когда правительство ... 10 10 3
Торрент: Зарегистрирован [2019-05-02 09:35] · скачан: 6 раз
Статус: √ проверено
Размер: 24.99 GB
Как cкачать? Как скачать Готэм через торрент | qTorrent

% Раздел Тема Автор DL S | L
Зарубежные сериалы [ 19.49 GB ] Готэм / Gotham / Сезон: 5 / Серии: 1-10 из 12 [2019 WEB-DL 1080p] MVO [NewStudio] bober100 Скачать
1 | 0
Зарубежные сериалы [ 79.58 GB ] Готэм / Gotham / Сезон: 5 / Серии: 1-12 из 12 [2019 BD Remux 1080р] MVO [LostFilm] bober100 Скачать
1 | 0
Зарубежные сериалы [ 12.74 GB ] Готэм / Gotham / Сезон: 5 / Серии: 1-12 из 12 [2019 WEB-DL 720p] [MVO] killermax2013 Скачать
1 | 0
Зарубежные сериалы [ 15.31 GB ] Готэм / Gotham / Сезон: 5 / Серии: 1-12 из 12 [2019 WEBRip 720p] [MVO] killermax2013 Скачать
1 | 0
Зарубежные сериалы [ 11.59 GB ] Готэм / Gotham / Сезон: 5 / Серии: 1-10 из 12 [2019 WEB-DL 720p] [MVO] killermax2013 Скачать
1 | 0
Зарубежные сериалы [ 6.01 GB ] Готэм / Gotham / Сезон: 5 / Серии: 1-12 из 12 [2019 WEB-DLRip] [MVO] killermax2013 Скачать
1 | 0
Зарубежные сериалы [ 13.34 GB ] Готэм / Gotham / Сезон: 5 / Серии: 1-12 из 12 [2019 WEBRip 720p] MVO [LostFilm] bober100 Скачать
1 | 0

28-11-2019 20:33  

Отключить всю рекламу на сайте

    Дорогой пользователь! Огромная просьба, поблагодарите релизера, оцените раздачу и оставьте свои комментарий, если Вы скачали Готэм через торрент бесплатно! Внесите свою лепту в развитие PiratBit!
    Комментировать посты могут только пользователи прошедшие не сложную регистрацию
    Показать сообщения:    

    Готэм через торрент
    Скачать бесплатно Готэм
    Готэм скачать торрент
    Готэм смотреть онлайн
    Cкачать фильм Готэм бесплатно
    Готэм скачать торрент в хорошем качестве
    Готэм смотреть онлайн бесплатно в хорошем качестве


    Вы не можете начинать темы
    Вы не можете отвечать на сообщения
    Вы не можете редактировать свои сообщения
    Вы не можете удалять свои сообщения
    Вы не можете голосовать в опросах
    Вы не можете прикреплять файлы к сообщениям
    Вы можете скачивать файлы