новый адрес пиратбит piratbit
Мега распродажа FORZA HORIZON 4 ULTIMATE+ВСЕ DLC+ОНЛАЙН всего за 499р. 349 руб. (супер цена). Внимание количество ограничено!!!

iTunes

1+1

iTunes

мы

iTunes

1

iTunes

Чернобыль

iTunes

Ральф против интернета

Лицензия

ПШазам

Лицензия

Игра престолов

Лицензия

30
pack

ВАЖНО

!!Акция!!

Alien_RageХит недели

RePack

Resident Evil 21

ИГРА 18+

pack

RePack

Metro:Exodus

!!Акция!!

Alien_Rage

RePack

fifa19

RePack

Assassins Creed: Odyssey

RePack

NEED FOR SPEED™ PAYBACK

3 сезон

9 сезон

Бесстыжие 9 сезон

Все сериалы

все сериалы на PB.wtf

RePack

FAR CRY 5
Ребята, катастрофически не хватает 1900р. для оплаты серверов за Октябрь (всвязи с блокировками трафик упал в 3 раза), 1-2р., выручайте.
  

После бала (Анатолий Дудоров) [1962, СССР, короткометражка, драма, SATRip от AVP Studio] pb.wtf

После бала через торрент pb.wtf

Размер: 373 MB | Добавлен: 9 мес. назад | Торрент скачан:6 раз
Скачать  

30-01-2019 13:50 После бала Скачать торрент  

После бала
Страна: СССР
Производство: Главная редакция литературно-драматических программ ЦТ

Жанр: драма
Год выпуска: 1962
Продолжительность: 00:33:22

Перевод: Не требуется
Cубтитры: нет
Оригинальная аудиодорожка: русский

Режиссер: Анатолий Дудоров

В ролях:
Михаил Болдуман, Михаил Державин, Александр Пронин, Ия Арепина, Николай Бубнов, Людмила Семёнова, Георгий Бударов, Татьяна Барышева, Виктор Бубнов, Дамир Хайруллин...
Об актёрах подробней

Описание:
Иван Васильевич влюблён в Вареньку и восхищён её отцом-полковником. Но перевоплощение нежно любящего отца из добродушного полковника в жестокого и безжалостного мучителя настолько потрясло героя фильма, что чувства его к Вареньке быстро остыли.

Исходник: DVB
Качество видео: SATRip
Формат видео: AVI

Видео: 704x528 (4:3), 25,000 кадров/сек, XviD ~ 1360 kbps avg, 0.146 bit/pixel
Аудио: 48 kHz, Dolby Digital AC3 2.0, 192 kbps

Раздача от:
Общее
Полное имя : Posle.bala.1962.SATRip_[New-team]_by_AVP_Studio.avi
Формат : AVI
Формат/Информация : Audio Video Interleave
Размер файла : 373 Мбайт
Продолжительность : 33 м. 22 с.
Общий поток : 1561 Кбит/сек
Программа кодирования : VirtualDubMod 1.5.10.3 | www.virtualdub-fr.org || (build 2550/release)
Библиотека кодирования : VirtualDubMod build 2550/release

Видео
Идентификатор : 0
Формат : MPEG-4 Visual
Профиль формата : Advanced Simple@L5
Настройки формата : BVOP1 / Custom Matrix
Параметр BVOP формата : 1
Параметр QPel формата : Нет
Параметр GMC формата : Без точки перехода
Параметр матрицы формата : Выборочная
Идентификатор кодека : XVID
Идентификатор кодека/Подсказка : XviD
Продолжительность : 33 м. 22 с.
Битрейт : 1360 Кбит/сек
Ширина : 704 пикселя
Высота : 528 пикселей
Соотношение сторон : 4:3
Частота кадров : 25,000 кадров/сек
Цветовое пространство : YUV
Субдискретизация насыщенности : 4:2:0
Битовая глубина : 8 бит
Тип развёртки : Прогрессивная
Метод сжатия : С потерями
Бит/(Пиксели*Кадры) : 0.146
Размер потока : 325 Мбайт (87%)
Библиотека кодирования : XviD 73

Аудио
Идентификатор : 1
Формат : AC-3
Формат/Информация : Audio Coding 3
Коммерческое название : Dolby Digital
Идентификатор кодека : 2000
Продолжительность : 33 м. 22 с.
Вид битрейта : Постоянный
Битрейт : 192 Кбит/сек
Каналы : 2 канала
Channel layout : L R
Частота : 48,0 КГц
Частота кадров : 31,250 кадров/сек (1536 SPF)
Битовая глубина : 16 бит
Метод сжатия : С потерями
Размер потока : 45,8 Мбайт (12%)
Выравнивание : Разделение по промежуткам
Продолжительность промежутка : 40 мс. (1,00 видеокадр)
Время предзагрузки промежутка : 500 мс
pb.wtf



Скачать После бала через торрент http://img10.lostpic.net/2019/01/30/257600698b1bbb8ea7353e6bfe7ed00c.png Скачать фильм После бала через торрент бесплантно в хорошем качестве Описание:Иван Васильевич влюблён в Вареньку и восхищён её отцом-полковником. Но перевоплощение нежно любящего отца из добродушного ... 5 10 1
Info! Золотая раздача, скачанное не засчитывается.
Торрент: Зарегистрирован [2019-01-30 13:50] · скачан: 6 раз
Статус: √ проверено
Размер: 373 MB
Как cкачать? Как скачать После бала через торрент | qTorrent

% Раздел Тема Автор DL S | L
Кино СССР [ 372 MB ] После бала [1962 СССР короткометражка SATRip-AVC от AVP Studio] AVP Studio Скачать
1 | 0
Фильмы с авторской озвучкой [ 2.17 GB ] Вышибала: Эпический замес / Вышибала: Последний из Тафгаев / Goon: Last of the Enforcers [2017 BDRip-AVC] [AVO] Гоблин) - ExKinoRay Enigma2010 Скачать
1 | 0
Фильмы с авторской озвучкой [ 3.47 GB ] Вышибала: Эпический замес / Вышибала: Последний из Тафгаев / Goon: Last of the Enforcers [2017 WEB-DL 1080р] [AVO] ) killermax2013 Скачать
1 | 0
Документальные фильмы и телепередачи [ 531 MB ] Последний бал [2011 документальный DVDRip Оригинал] metanoia Скачать
1 | 0


>> Регистрируемся здесь <<






Отзывы и комментарии о схеме читаем и пишем здесь: ---> Отзывы и комментарии о схеме

Новые благодарочки в телеграм довольных пользователей:
скриншот   скриншот   скриншот   скриншот   скриншот
    Дорогой пользователь! Огромная просьба, поблагодарите релизера, оцените раздачу и оставьте свои комментарий, если Вы скачали После бала через торрент бесплатно! Внесите свою лепту в развитие PiratBit!
    Комментировать посты могут только пользователи прошедшие не сложную регистрацию
    Показать сообщения:    

    После бала через торрент
    Скачать бесплатно После бала
    После бала скачать торрент
    После бала смотреть онлайн
    Cкачать фильм После бала бесплатно
    После бала скачать торрент в хорошем качестве
    После бала смотреть онлайн бесплатно в хорошем качестве


    Вы не можете начинать темы
    Вы не можете отвечать на сообщения
    Вы не можете редактировать свои сообщения
    Вы не можете удалять свои сообщения
    Вы не можете голосовать в опросах
    Вы не можете прикреплять файлы к сообщениям
    Вы можете скачивать файлы