новый адрес
Ссылка на приватное зеркало всего за 1$. Внимание количество ограничено!!!

iTunes

1+1

iTunes

мы

iTunes

1

iTunes

Чернобыль

iTunes

Ральф против интернета

Лицензия

ПШазам

Лицензия

Оно 2

Лицензия

30
pack

Вам бонус

ВАЖНО

!!Акция!!

Alien_RageХит недели

RePack

Resident Evil 21

ИГРА 18+

pack

RePack

jed

!!Акция!!

Alien_Rage

RePack

fifa19

RePack

Assassins Creed: Odyssey

RePack

NEED FOR SPEED™ PAYBACK

3 сезон

9 сезон

Бесстыжие 9 сезон

Все сериалы

все сериалы на PB.wtf

RePack

FAR CRY 5
Ребята, катастрофически не хватает 1900р. для оплаты серверов за Октябрь (всвязи с блокировками трафик упал в 3 раза), 1-2р., выручайте.
  

После бала (Анатолий Дудоров) [1962, СССР, короткометражка, драма, SATRip-AVC от AVP Studio] pb.wtf

После бала через торрент pb.wtf

Размер: 372 MB | Добавлен: 9 мес. назад | Торрент скачан:9 раз
Скачать  

30-01-2019 13:51 После бала Скачать торрент  

Страна: СССР
Производство: Главная редакция литературно-драматических программ ЦТ

Жанр: драма
Год выпуска: 1962
Продолжительность: 00:33:22

Перевод: Не требуется
Cубтитры: нет
Оригинальная аудиодорожка: русский

Режиссер: Анатолий Дудоров

В ролях:
Михаил Болдуман, Михаил Державин, Александр Пронин, Ия Арепина, Николай Бубнов, Людмила Семёнова, Георгий Бударов, Татьяна Барышева, Виктор Бубнов, Дамир Хайруллин...
Об актёрах подробней

Описание:
Иван Васильевич влюблён в Вареньку и восхищён её отцом-полковником. Но перевоплощение нежно любящего отца из добродушного полковника в жестокого и безжалостного мучителя настолько потрясло героя фильма, что чувства его к Вареньке быстро остыли.

Исходник: DVB
Качество видео: SATRip-AVC
Формат видео: MKV

Видео: 716->761x572 (4:3), 25,000 кадров/сек, H264 ~ 1365 kbps avg, 0.133 bit/pixel
Аудио: 48 kHz, Dolby Digital AC3 2.0, 192 kbps

Раздача от:
Общее
Полное имя : Posle.bala.1962.SATRip-AVC_[New-team]_by_AVP_Studio.mkv
Формат : Matroska
Версия формата : Version 2
Размер файла : 372 Мбайт
Продолжительность : 33 м. 22 с.
Общий поток : 1559 Кбит/сек
Дата кодирования : UTC 2019-01-27 12:42:16
Программа кодирования : mkvmerge v6.1.0 ('Old Devil') built on Mar 4 2013 09:10:42
Библиотека кодирования : libebml v1.3.0 + libmatroska v1.4.0

Видео
Идентификатор : 1
Формат : AVC
Формат/Информация : Advanced Video Codec
Профиль формата : High@L4.1
Настройки формата : CABAC / 10 Ref Frames
Параметр CABAC формата : Да
Параметр RefFrames формата : 10 кадров
Идентификатор кодека : V_MPEG4/ISO/AVC
Продолжительность : 33 м. 22 с.
Битрейт : 1365 Кбит/сек
Ширина : 716 пикселей
Высота : 572 пикселя
Соотношение сторон : 4:3
Режим частоты кадров : Постоянный
Частота кадров : 25,000 кадров/сек
Цветовое пространство : YUV
Субдискретизация насыщенности : 4:2:0
Битовая глубина : 8 бит
Тип развёртки : Прогрессивная
Бит/(Пиксели*Кадры) : 0.133
Размер потока : 319 Мбайт (86%)
Библиотека кодирования : x264 core 157 r2932 303c484
Настройки программы : cabac=1 / ref=10 / deblock=1:-2:-1 / analyse=0x3:0x113 / me=umh / subme=10 / psy=1 / psy_rd=1.00:0.00 / mixed_ref=1 / me_range=32 / chroma_me=1 / trellis=2 / 8x8dct=1 / cqm=0 / deadzone=21,11 / fast_pskip=1 / chroma_qp_offset=-2 / threads=6 / lookahead_threads=1 / sliced_threads=0 / nr=0 / decimate=0 / interlaced=0 / bluray_compat=0 / constrained_intra=0 / bframes=8 / b_pyramid=2 / b_adapt=2 / b_bias=0 / direct=3 / weightb=1 / open_gop=0 / weightp=2 / keyint=250 / keyint_min=25 / scenecut=40 / intra_refresh=0 / rc=2pass / mbtree=0 / bitrate=1365 / ratetol=1.0 / qcomp=0.60 / qpmin=0 / qpmax=69 / qpstep=4 / cplxblur=20.0 / qblur=0.5 / ip_ratio=1.40 / pb_ratio=1.30 / aq=1:1.00
Default : Да
Forced : Нет

Аудио
Идентификатор : 2
Формат : AC-3
Формат/Информация : Audio Coding 3
Коммерческое название : Dolby Digital
Идентификатор кодека : A_AC3
Продолжительность : 33 м. 22 с.
Вид битрейта : Постоянный
Битрейт : 192 Кбит/сек
Каналы : 2 канала
Channel layout : L R
Частота : 48,0 КГц
Частота кадров : 31,250 кадров/сек (1536 SPF)
Битовая глубина : 16 бит
Метод сжатия : С потерями
Размер потока : 45,8 Мбайт (12%)
Default : Да
Forced : Нет
pb.wtf



Скачать После бала через торрент http://img10.lostpic.net/2019/01/30/257600698b1bbb8ea7353e6bfe7ed00c.png Скачать фильм После бала через торрент бесплантно в хорошем качестве Описание:Иван Васильевич влюблён в Вареньку и восхищён её отцом-полковником. Но перевоплощение нежно любящего отца из добродушного ... 5 10 1
Info! Золотая раздача, скачанное не засчитывается.
Торрент: Зарегистрирован [2019-01-30 13:51] · скачан: 9 раз
Статус: √ проверено
Размер: 372 MB
Как cкачать? Как скачать После бала через торрент | qTorrent

% Раздел Тема Автор DL S | L
Кино СССР [ 373 MB ] После бала [1962 СССР короткометражка SATRip от AVP Studio] AVP Studio Скачать
1 | 0
Фильмы с авторской озвучкой [ 2.17 GB ] Вышибала: Эпический замес / Вышибала: Последний из Тафгаев / Goon: Last of the Enforcers [2017 BDRip-AVC] [AVO] Гоблин) - ExKinoRay Enigma2010 Скачать
1 | 0
Фильмы с авторской озвучкой [ 3.47 GB ] Вышибала: Эпический замес / Вышибала: Последний из Тафгаев / Goon: Last of the Enforcers [2017 WEB-DL 1080р] [AVO] ) killermax2013 Скачать
2 | 0
Документальные фильмы и телепередачи [ 531 MB ] Последний бал [2011 документальный DVDRip Оригинал] metanoia Скачать
1 | 0


>> Регистрируемся здесь <<






Отзывы и комментарии о схеме читаем и пишем здесь: ---> Отзывы и комментарии о схеме

Новые благодарочки в телеграм довольных пользователей:
скриншот   скриншот   скриншот   скриншот   скриншот
    Дорогой пользователь! Огромная просьба, поблагодарите релизера, оцените раздачу и оставьте свои комментарий, если Вы скачали После бала через торрент бесплатно! Внесите свою лепту в развитие PiratBit!
    Комментировать посты могут только пользователи прошедшие не сложную регистрацию
    Показать сообщения:    

    После бала через торрент
    Скачать бесплатно После бала
    После бала скачать торрент
    После бала смотреть онлайн
    Cкачать фильм После бала бесплатно
    После бала скачать торрент в хорошем качестве
    После бала смотреть онлайн бесплатно в хорошем качестве


    Вы не можете начинать темы
    Вы не можете отвечать на сообщения
    Вы не можете редактировать свои сообщения
    Вы не можете удалять свои сообщения
    Вы не можете голосовать в опросах
    Вы не можете прикреплять файлы к сообщениям
    Вы можете скачивать файлы