Ссылка на приватное зеркало нашего сайта всего за 1$. Внимание количество ограничено!!!

2 сезон

iTunes

1 сезон

1

2 сезон

2 сезон

iTunes

1 сезон

RePack

30

Новинка

ВАЖНО

ИГРА 18+

pack

RePack

MK11
pack

Забери бонус

RePack

jed

!!Акция!!

Alien_Rage

RePack

fifa19

RePack

Assassins Creed: Odyssey

RePack

NEED FOR SPEED™ PAYBACK

4 сезон

9 сезон

Бесстыжие 9 сезон

Все сериалы

все сериалы на PB.wtf

RePack

FAR CRY 5
  

Имя мне Ночь / I Am the Night / Сезон: 1 / Серии: 1-6 из 6 (Пэтти Дженкинс, Виктория Махони, Карл Франклин) [2019, драма, детектив, WEB-DL 1080p] MVO [Novamedia] pb.wtf

Имя мне Ночь через торрент pb.wtf

Размер: 21.92 GB | Добавлен: 1 год 8 мес. назад | Торрент скачан:7 раз
Скачать  

30-01-2019 14:40 Имя мне Ночь Скачать торрент  

Имя мне Ночь / I Am the Night Год выпуска: 2019
Страна: США
Жанр: драма, детектив
Продолжительность: ~ 00:45:00
Перевод: Профессиональный (многоголосый) | Novamedia
Субтитры: Russian (Full), English (Full, SDH)

Режиссер: Пэтти Дженкинс, Виктория Махони, Карл Франклин

rating


В ролях:

Крис Пайн, Индиа Айсли, Джеффресон Мейс, Дилан Смит, Шоникуа Шандай, Голден Брукс, Джей Полсон, Джастин Корнвэлл, Александр Канеллакос

Описание:

Юная Пэт - дочь белого и афроамериканки, живет неподалеку от Рино, штат Невада, страдает от спивающейся матери, воспитывающей ее в одиночку, сталкивается с процветающим расизмом и другими типичными проблемами Америки 1960-х. Все меняется, когда она случайно узнает, что ее настоящее имя - Фауна Ходел, а женщина, которую она все это время считала матерью, взяла ее на попечение ребенком двадцать лет назад. Фауна решает во что бы то ни стало найти свои биологических родителей, и помогает ей в этом журналист Джей Синглетери - ветеран Корейской войны, наркоман и авантюрист, тоже мечтающий о другой жизни.

Качество: WEB-DL 1080p
Формат: MKV

Видео: 1920x1080 at 23.976 fps, MPEG-4 AVC, ~10000 kbps avg
Аудио#1: Russian: 48 kHz, AC3, 2/0 (L,R) ch, ~192 kbps avg |Многоголосый закадровый, Novamedia|
Аудио#2: English: 48 kHz, E-AC3, 3/2 (L,C,R,l,r) + LFE ch, ~640 kbps avg
скриншот  скриншот  скриншот  скриншот  

Общее
Уникальный идентификатор : 214709868299584506226702860501297826325 (0xA1879DD1112E35DFA83BE127F90A8A15)
Полное имя : E:\I.Am.the.Night.S01.1080p.AMZN.WEB-DL.Rus.Eng_TeamHD\I.Am.the.Night.S01E01.Pilot.1080p.AMZN.WEB-DL.Rus.Eng_TeamHD.mkv
Формат : Matroska
Версия формата : Version 4 / Version 2
Размер файла : 3,93 Гбайт
Продолжительность : 54 м. 15 с.
Общий поток : 10,4 Мбит/сек
Название фильма : I Am the Night S01E01 - ReJliz TeamHD by BenderBEST
Дата кодирования : UTC 2019-01-30 10:22:32
Программа кодирования : mkvmerge v8.3.0 ('Over the Horizon') 64bit
Библиотека кодирования : libebml v1.3.1 + libmatroska v1.4.2

Видео
Идентификатор : 1
Формат : AVC
Формат/Информация : Advanced Video Codec
Профиль формата : High@L4
Настройки формата : CABAC / 4 Ref Frames
Параметр CABAC формата : Да
Параметр RefFrames формата : 4 кадра
Идентификатор кодека : V_MPEG4/ISO/AVC
Продолжительность : 54 м. 15 с.
Вид битрейта : Постоянный
Битрейт : 9626 Кбит/сек
Номинальный битрейт : 10000 Кбит/сек
Ширина : 1920 пикселей
Высота : 1080 пикселей
Соотношение сторон : 16:9
Режим частоты кадров : Постоянный
Частота кадров : 23,976 (24000/1001) кадра/сек
Цветовое пространство : YUV
Субдискретизация насыщенности : 4:2:0
Битовая глубина : 8 бит
Тип развёртки : Прогрессивная
Бит/(Пиксели*Кадры) : 0.188
Размер потока : 3,53 Гбайт (90%)
Язык : English
Default : Да
Forced : Да
Цветовой диапазон : Limited
Основные цвета : BT.709
Характеристики трансфера : BT.709
Коэффициенты матрицы : BT.709

Аудио #1
Идентификатор : 2
Формат : AC-3
Формат/Информация : Audio Coding 3
Идентификатор кодека : A_AC3
Продолжительность : 54 м. 15 с.
Вид битрейта : Постоянный
Битрейт : 192 Кбит/сек
Каналы : 2 канала
Расположение каналов : Front: L R
Частота : 48,0 КГц
Частота кадров : 31,250 кадров/сек (1536 SPF)
Битовая глубина : 16 бит
Метод сжатия : С потерями
Размер потока : 74,5 Мбайт (2%)
Заголовок : AAC 2.0 @ 160 kbps - MVO, Novamedia
Язык : Russian
ServiceKind/String : Complete Main
Default : Да
Forced : Да

Аудио #2
Идентификатор : 3
Формат : E-AC-3
Формат/Информация : Enhanced Audio Coding 3
Идентификатор кодека : A_EAC3
Продолжительность : 54 м. 15 с.
Вид битрейта : Постоянный
Битрейт : 640 Кбит/сек
Каналы : 6 каналов
Расположение каналов : Front: L C R, Side: L R, LFE
Частота : 48,0 КГц
Частота кадров : 187,500 кадров/сек (256 SPF)
Метод сжатия : С потерями
Размер потока : 248 Мбайт (6%)
Заголовок : EAC3 5.1 @ 640 kbps
Язык : English
ServiceKind/String : Complete Main
Default : Нет
Forced : Нет

Текст #1
Идентификатор : 4
Формат : UTF-8
Идентификатор кодека : S_TEXT/UTF8
Идентификатор кодека/Информация : UTF-8 Plain Text
Заголовок : Full
Язык : Russian
Default : Нет
Forced : Нет

Текст #2
Идентификатор : 5
Формат : UTF-8
Идентификатор кодека : S_TEXT/UTF8
Идентификатор кодека/Информация : UTF-8 Plain Text
Заголовок : Full
Язык : English
Default : Нет
Forced : Нет

Текст #3
Идентификатор : 6
Формат : UTF-8
Идентификатор кодека : S_TEXT/UTF8
Идентификатор кодека/Информация : UTF-8 Plain Text
Заголовок : SDH
Язык : English
Default : Нет
Forced : Нет

Внимание! Раздача ведётся путём добавления новых серий; при каждом добавлении создаётся новый торрент. Чтобы начать докачку новой серии, пользователям необходимо сделать следующее:
(1) остановить скачивание,
(2) удалить старый торрент у себя из клиента (старые серии удалять не надо),
(3) скачать новый торрент и запустить его у себя в клиенте вместо старого, при этом указать клиенту путь в старую папку куда и должно происходить скачивание новых серий.
Ваш клиент при этом должен произвести хеширование (проверку) старой папки (если не производит сам - помогите ему сделать это), и будет докачивать только те серии которых у вас ещё нет. Старые серии при этом не удаляются, а продолжают раздаваться!
Eсли вы уже удалили старые серии, то предотвратить повторную закачку старых серий можно, отжав галочку в соответствующих местах при запуске нового торрента. По возможности, желательно не удалять старые серии как можно дольше чтобы релизёр не столько продолжал раздавать старые серии, а смог сконцентрироваться на новых.
pb.wtf



Скачать Имя мне Ночь через торрент https://b.radikal.ru/b19/1901/a0/b850a146fc1c.jpg Скачать фильм Имя мне Ночь через торрент бесплантно в хорошем качестве Описание: Юная Пэт - дочь белого и афроамериканки, живет неподалеку от Рино, штат Невада, страдает от спивающейся матери, воспитывающей ее ... 10 10 3
Торрент: Зарегистрирован [2019-03-07 20:43] · скачан: 7 раз
Статус: √ проверено
Размер: 21.92 GB
Как cкачать? Как скачать Имя мне Ночь через торрент | qTorrent

% Раздел Тема Автор DL S | L
Зарубежные сериалы [ 14.01 GB ] Имя мне ночь / I Am the Night / Сезон: 1 / Серии: 1-6 из 6 [2019 WEB-DL 720p] MVO [Lostfilm] bober100 Скачать
1 | 0
Зарубежные сериалы [ 10.8 GB ] Имя мне Ночь / I Am the Night / Сезон: 1 / Серии: 1-6 из 6 [2019 WEB-DLRip] [MVO] killermax2013 Скачать
1 | 0
Зарубежные сериалы [ 22.33 GB ] Имя мне - ночь / I Am the Night / Сезон: 1 / Серии: 1-6 из 6 [2019 WEB-DL 1080p] MVO [TVShows] bober100 Скачать
1 | 0
Зарубежные сериалы [ 3.58 GB ] Имя мне Ночь / Я-Ночь / I Am the Night / Сезон: 1 / Серии: 1-6 из 6 [2019 WEBRip] [MVO] killermax2013 Скачать
1 | 0
Зарубежные сериалы [ 22.88 GB ] Имя мне ночь / I Am the Night / Сезон: 1 / Серии: 1-6 из 6 [2019 WEB-DL 1080p] MVO [Lostfilm] bober100 Скачать
1 | 0
Зарубежные сериалы [ 3.79 GB ] Имя мне Ночь / I Am the Night / Сезон: 1 / Серии: 1-6 из 6 [2019 WEB-DLRip] MVO [LostFilm] bober100 Скачать
1 | 0
Зарубежные сериалы [ 3.81 GB ] Имя мне Ночь / I Am the Night / Сезон: 1 / Серии: 1-6 из 6 [2019 WEB-DLRip] MVO [Jaskier] bober100 Скачать
1 | 0

28-11-2019 20:33  

Отключить всю рекламу на сайте

    Дорогой пользователь! Огромная просьба, поблагодарите релизера, оцените раздачу и оставьте свои комментарий, если Вы скачали Имя мне Ночь через торрент бесплатно! Внесите свою лепту в развитие PiratBit!
    Комментировать посты могут только пользователи прошедшие не сложную регистрацию
    Показать сообщения:    

    Имя мне Ночь через торрент
    Скачать бесплатно Имя мне Ночь
    Имя мне Ночь скачать торрент
    Имя мне Ночь смотреть онлайн
    Cкачать фильм Имя мне Ночь бесплатно
    Имя мне Ночь скачать торрент в хорошем качестве
    Имя мне Ночь смотреть онлайн бесплатно в хорошем качестве


    Вы не можете начинать темы
    Вы не можете отвечать на сообщения
    Вы не можете редактировать свои сообщения
    Вы не можете удалять свои сообщения
    Вы не можете голосовать в опросах
    Вы не можете прикреплять файлы к сообщениям
    Вы можете скачивать файлы