Ссылка на приватное зеркало нашего сайта всего за 1$. Внимание количество ограничено!!!

2 сезон

iTunes

1 сезон

1

2 сезон

2 сезон

iTunes

1 сезон

RePack

30

Ultimate

ВАЖНО

ИГРА 18+

pack

RePack

MK11
pack

Забери бонус

RePack

jed

!!Акция!!

Alien_Rage

RePack

fifa19

RePack

Assassins Creed: Odyssey

RePack

NEED FOR SPEED™ PAYBACK

4 сезон

9 сезон

Бесстыжие 9 сезон

Все сериалы

все сериалы на PB.wtf

RePack

FAR CRY 5
  

Коннеры / The Conners / Сезон: 1 / Серии: 1-11 из 11 (Энди Экерман) [2018, комедия, HDTVRip 720p] MVO [Jaskier] pb.wtf

Коннеры через торрент pb.wtf

Размер: 6.25 GB | Добавлен: 1 год 10 мес. назад | Торрент скачан:3 раза
Скачать  

30-01-2019 17:34 Коннеры Скачать торрент  

Коннеры / The Conners

Год выпуска: 2018
Страна: США
Жанр: комедия
Продолжительность: ~ 00:22:00
Перевод: Профессиональный (многоголосый закадровый) | Jaskier
Субтитры: нет

Режиссёр: Энди Экерман

В ролях:

Майкл Фишман, Сара Гилберт, Джон Гудмен, Алисия Горансон, Эмма Кинни, Эймс Макнамара, Лори Меткаф, Джейден Рей, Майя Линн Робинсон, Джон Биллингсли

Описание:

Сериал «Коннеры» рассказывает о жизни знаменитого семейства после смерти Розанны. В центре сюжета — Дарлин Коннер и двое ее детей, которые каждый день создают всей семье массу неприятностей и забавных моментов. Коннеры — герои сериала «Розанна», выходившего на экраны в 1988-1997 годах. В 2018 году сериал был возобновлен, но вскоре снова закрыт из-за скандала: звезда шоу Розанна была уволена из проекта из-за расистской записи в своем микроблоге в Twitter. Продолжение приключений семьи Коннер было решено снимать без ее участия.



Качество: HDTVRip 720p
Формат: MKV

Видео: X264, ~ 2222 kbps, 1280x718 (16:9), 23.976 fps
Аудио 1: AC3, 48,0 КГц, 6 ch, 384 kbps - RUS
Аудио 2: AC3, 48,0 КГц, 6 ch, 384 kbps - ENG


Реклама: аудио, два раза в начале и в конце по 13 секунд
Общее
Уникальный идентификатор                 : 198044357811691724781562996476323692590 (0x94FDF4B609322702843EDA1F08A6002E)
Полное имя                               : V:ONGOING\The.Conners. Season 1 (HDTV l 720p l JASKiER)\The.Conners.S01E01.720p.Jaskier.mkv
Формат                                   : Matroska
Версия формата                           : Version 2
Размер файла                             : 472 Мбайт
Продолжительность                        : 21 м.
Общий поток                              : 3048 Кбит/сек
Дата кодирования                         : UTC 2018-11-25 15:41:33
Программа кодирования                    : mkvmerge v7.8.0 ('River Man') 32bit built on Apr  3 2015 12:11:22
Библиотека кодирования                   : libebml v1.3.1 + libmatroska v1.4.2

Видео
Идентификатор                            : 1
Формат                                   : AVC
Формат/Информация                        : Advanced Video Codec
Профиль формата                          : High@L4.1
Параметр CABAC формата                   : Да
Параметр ReFrames формата                : 5 кадров
Идентификатор кодека                     : V_MPEG4/ISO/AVC
Продолжительность                        : 21 м.
Битрейт                                  : 2219 Кбит/сек
Ширина                                   : 1280 пикселей
Высота                                   : 718 пикселей
Соотношение сторон                       : 16:9
Режим частоты кадров                     : Постоянный
Частота кадров                           : 23,976 (24000/1001) кадра/сек
Цветовое пространство                    : YUV
Субдискретизация насыщенности            : 4:2:0
Битовая глубина                          : 8 бит
Тип развёртки                            : Прогрессивная
Бит/(Пиксели*Кадры)                      : 0.101
Размер потока                            : 344 Мбайт (73%)
Библиотека кодирования                   : x264 core 157 r2935 545de2f
Настройки программы                      : cabac=1 / ref=5 / deblock=1:0:0 / analyse=0x3:0x113 / me=hex / subme=8 / psy=1 / psy_rd=1.00:0.00 / mixed_ref=1 / me_range=16 / chroma_me=1 / trellis=2 / 8x8dct=1 / cqm=0 / deadzone=21,11 / fast_pskip=1 / chroma_qp_offset=-2 / threads=22 / lookahead_threads=3 / sliced_threads=0 / nr=0 / decimate=1 / interlaced=0 / bluray_compat=0 / constrained_intra=0 / bframes=3 / b_pyramid=2 / b_adapt=1 / b_bias=0 / direct=3 / weightb=1 / open_gop=0 / weightp=2 / keyint=250 / keyint_min=23 / scenecut=40 / intra_refresh=0 / rc_lookahead=50 / rc=crf / mbtree=1 / crf=18.0 / qcomp=0.60 / qpmin=0 / qpmax=69 / qpstep=4 / ip_ratio=1.40 / aq=1:1.00
Default                                  : Да
Forced                                   : Нет
Цветовой диапазон                        : Limited
Коэффициенты матрицы                     : BT.709

Аудио #1
Идентификатор                            : 2
Формат                                   : AC-3
Формат/Информация                        : Audio Coding 3
Расширение режима                        : CM (complete main)
Параметр Endianness формата              : Big
Идентификатор кодека                     : A_AC3
Продолжительность                        : 21 м.
Вид битрейта                             : Постоянный
Битрейт                                  : 384 Кбит/сек
Каналы                                   : 6 каналов
Расположение каналов                     : Front: L C R, Side: L R, LFE
Частота                                  : 48,0 КГц
Частота кадров                           : 31,250 кадров/сек (1536 spf)
Метод сжатия                             : С потерями
Размер потока                            : 59,5 Мбайт (13%)
Заголовок                                : Jaskier
Язык                                     : Russian
Default                                  : Да
Forced                                   : Нет

Аудио #2
Идентификатор                            : 3
Формат                                   : AC-3
Формат/Информация                        : Audio Coding 3
Расширение режима                        : CM (complete main)
Параметр Endianness формата              : Big
Идентификатор кодека                     : A_AC3
Продолжительность                        : 21 м.
Вид битрейта                             : Постоянный
Битрейт                                  : 384 Кбит/сек
Каналы                                   : 6 каналов
Расположение каналов                     : Front: L C R, Side: L R, LFE
Частота                                  : 48,0 КГц
Частота кадров                           : 31,250 кадров/сек (1536 spf)
Метод сжатия                             : С потерями
Размер потока                            : 59,5 Мбайт (13%)
Язык                                     : English
Default                                  : Нет
Forced                                   : Нет
скриншот  скриншот  скриншот  
Когда раздача ведётся путём добавления новых серий, при каждом добавлении создётся новый торрент. Чтобы начать докачку новой серии, пользователям необходимо сделать следующее:
(1) остановить скачивание,
(2) удалить старый торрент у себя из клиента (старые серии удалять не надо),
(3) скачать новый торрент и запустить его у себя в клиенте вместо старого, при этом указать клиенту путь в старую папку, куда и должно происходить скачивание новых серий.
Ваш клиент при этом должен произвести хеширование (проверку) старой папки (если не производит сам - помогите ему сделать это), и будет докачивать только те серии, которых у вас ещё нет. Старые серии при этом не удаляются, а продолжают раздаваться!
Eсли вы уже удалили старые серии, то предотвратить повторную закачку старых серий можно, отжав галочку в соответсвующих местах при запуске нового торрента. По возможности, желательно не удалять старые серии как можно дольше, чтобы релизёр не столько продолжал раздавать старые серии, а смог сконцентрироваться на новых.
pb.wtf



Скачать Коннеры через торрент https://i107.fastpic.ru/big/2018/1125/8a/706a4a3ab39d25d73f02b5a3a0a1648a.png Скачать фильм Коннеры через торрент бесплантно в хорошем качестве Описание: Сериал «Коннеры» рассказывает о жизни знаменитого семейства после смерти Розанны. В центре сюжета — Дарлин Коннер и двое ее ... 10 10 3
Торрент: Зарегистрирован [2019-01-30 17:34] · скачан: 3 раз
Статус: √ проверено
Размер: 6.25 GB
Как cкачать? Как скачать Коннеры через торрент | qTorrent

% Раздел Тема Автор DL S | L
Зарубежные сериалы [ 2.73 GB ] Коннеры / The Conners / Сезон: 1 / Серии: 1-11 из 11 [2018 HDTVRip] MVO [Jaskier] bober100 Скачать
1 | 0

28-11-2019 20:33  

Отключить всю рекламу на сайте

    Дорогой пользователь! Огромная просьба, поблагодарите релизера, оцените раздачу и оставьте свои комментарий, если Вы скачали Коннеры через торрент бесплатно! Внесите свою лепту в развитие PiratBit!
    Комментировать посты могут только пользователи прошедшие не сложную регистрацию
    Показать сообщения:    

    Коннеры через торрент
    Скачать бесплатно Коннеры
    Коннеры скачать торрент
    Коннеры смотреть онлайн
    Cкачать фильм Коннеры бесплатно
    Коннеры скачать торрент в хорошем качестве
    Коннеры смотреть онлайн бесплатно в хорошем качестве


    Вы не можете начинать темы
    Вы не можете отвечать на сообщения
    Вы не можете редактировать свои сообщения
    Вы не можете удалять свои сообщения
    Вы не можете голосовать в опросах
    Вы не можете прикреплять файлы к сообщениям
    Вы можете скачивать файлы