Ссылка на приватное зеркало всего за 1$. Внимание количество ограничено!!!

OK

1+1

iTunes

мы

OK

1

WEB-DLRip

Джокер

Пифагор

Ведьмак / The Witcher сериал

Лицензия

ПШазам

ОК

Оно 2

iTunes

30
pack

Вам бонус

ВАЖНО

!!Акция!!

Alien_RageХит недели

RePack

Resident Evil 21

ИГРА 18+

pack

RePack

jed

!!Акция!!

Alien_Rage

RePack

fifa19

RePack

Assassins Creed: Odyssey

RePack

NEED FOR SPEED™ PAYBACK

4 сезон

9 сезон

Бесстыжие 9 сезон

Все сериалы

все сериалы на PB.wtf

RePack

FAR CRY 5
  

Тени на дороге / Shadows on the Road (Ноам Кролл) [2018, триллер, драма, детектив, WEB-DL 720p] MVO ["Синема УС"] pb.wtf

Тени на дороге через торрент pb.wtf

Размер: 2.89 GB | Добавлен: 11 мес. назад | Торрент скачан:11 раз
Скачать  

30-01-2019 18:05 Тени на дороге Скачать торрент  

Тени на дороге / Shadows on the Road Год выпуска: 2018
Страна: США
Жанр: триллер, драма, детектив
Продолжительность: 01:13:12
Перевод: Любительский (многоголосый) | "Синема УС"
Субтитры: отсутствуют

Режиссер: Ноам Кролл

rating

В ролях:

Патрик Андерсон, Джо Коффи, Дрю Хейл, Линдси Хатчинсон, Морган Макана, Джош Пафчек, Грэм Селден, Флавия Уотсон

Описание:

Молодая девушка Зоя знакомится с владелицей фургона, которая помогает ей убежать из города. Но как только они покидают город, она начинает понимать, что не убежит от своего мучительного прошлого.

Качество: WEB-DL 720p
Формат: MKV

Видео: h.264,5 272 kb/s, 1280x544
Аудио#1: Русский, (AC3, 2 ch, 384 Кбит/с)
скриншот  скриншот  скриншот  

Общее
Уникальный идентификатор : 222429500950306802031804976935253640013 (0xA7565D177AF30825BC1B631D0E89034D)
Полное имя : D:\Shadows.on.the.Road.2018.P.WEB-DL.72Op_KOSHARA.mkv
Формат : Matroska
Версия формата : Version 2
Размер файла : 2,89 Гбайт
Продолжительность : 1 ч. 13 м.
Режим общего битрейта : Переменный
Общий поток : 5658 Кбит/сек
Дата кодирования : UTC 2019-01-30 15:44:38
Программа кодирования : mkvmerge v8.3.0 ('Over the Horizon') 64bit
Библиотека кодирования : libebml v1.3.1 + libmatroska v1.4.2

Видео
Идентификатор : 1
Формат : AVC
Формат/Информация : Advanced Video Codec
Профиль формата : High@L4.1
Параметр CABAC формата : Да
Параметр RefFrames формата : 4 кадра
Идентификатор кодека : V_MPEG4/ISO/AVC
Продолжительность : 1 ч. 13 м.
Вид битрейта : Переменный
Битрейт : 5272 Кбит/сек
Максимальный битрейт : 6000 Кбит/сек
Ширина : 1280 пикселей
Высота : 544 пикселя
Соотношение сторон : 2,35:1
Режим частоты кадров : Постоянный
Частота кадров : 23,976 (24000/1001) кадра/сек
Стандарт вещания : Component
Цветовое пространство : YUV
Субдискретизация насыщенности : 4:2:0
Битовая глубина : 8 бит
Тип развёртки : Прогрессивная
Бит/(Пиксели*Кадры) : 0.309
Размер потока : 2,64 Гбайт (91%)
Default : Да
Forced : Нет
Цветовой диапазон : Limited
Основные цвета : BT.709
Характеристики трансфера : BT.709
Коэффициенты матрицы : BT.709

Аудио
Идентификатор : 2
Формат : AC-3
Формат/Информация : Audio Coding 3
Расширение режима : CM (complete main)
Параметр Endianness формата : Big
Идентификатор кодека : A_AC3
Продолжительность : 1 ч. 13 м.
Вид битрейта : Постоянный
Битрейт : 384 Кбит/сек
Каналы : 2 канала
Расположение каналов : Front: L R
Частота : 48,0 КГц
Частота кадров : 31,250 кадров/сек (1536 spf)
Метод сжатия : С потерями
Размер потока : 201 Мбайт (7%)
Default : Да
Forced : Нет

pb.wtf



Скачать Тени на дороге через торрент https://c.radikal.ru/c26/1901/74/85108b6a00cb.jpg Скачать фильм Тени на дороге через торрент бесплантно в хорошем качестве Описание: Молодая девушка Зоя знакомится с владелицей фургона, которая помогает ей убежать из города. Но как только они покидают город, она ... 10 10 2
Торрент: Зарегистрирован [2019-01-30 18:05] · скачан: 11 раз
Статус: T временная
Размер: 2.89 GB
Как cкачать? Как скачать Тени на дороге через торрент | qTorrent

% Раздел Тема Автор DL S | L
T Фильмы (мультфильмы) cо спонсором показа (Новинки AVI/MKV) [ 1.37 GB ] Тени на дороге / Shadows on the Road [2018 WEB-DLRip] MVO ["Синема УС"] bober100 Скачать
1 | 0

28-11-2019 20:33  

Отключить всю рекламу на сайте

    Дорогой пользователь! Огромная просьба, поблагодарите релизера, оцените раздачу и оставьте свои комментарий, если Вы скачали Тени на дороге через торрент бесплатно! Внесите свою лепту в развитие PiratBit!
    Комментировать посты могут только пользователи прошедшие не сложную регистрацию
    Показать сообщения:    

    Тени на дороге через торрент
    Скачать бесплатно Тени на дороге
    Тени на дороге скачать торрент
    Тени на дороге смотреть онлайн
    Cкачать фильм Тени на дороге бесплатно
    Тени на дороге скачать торрент в хорошем качестве
    Тени на дороге смотреть онлайн бесплатно в хорошем качестве


    Вы не можете начинать темы
    Вы не можете отвечать на сообщения
    Вы не можете редактировать свои сообщения
    Вы не можете удалять свои сообщения
    Вы не можете голосовать в опросах
    Вы не можете прикреплять файлы к сообщениям
    Вы можете скачивать файлы