Доктор Стрэндж

Лицензия

Добыча

MVO

Дом дракона

1 сезон

Тор

Лицензия

Мэверик

Лицензия

Там, где раки поют

MVO

Властелин колец

1 сезон

Ultimate

pack

Рекомендуем

30

Repack

ВАЖНО

ВАЖНО

Ghostwire

RePack

jed

RePack

nioh2

RePack

RDR2

RePack

NEED FOR SPEED™ PAYBACK

RePack

скачать торрент

Кинопоиск HD

Острые козырьки 6 сезон

6 сезон

FAR CRY 6

RePack

скачать торрент

Лицензия

скачать торрент

MVO

1

1 сезон

скачать торрент

1 сезон

скачать торрент

Лицензия

  

Полуночник / The Midnight Man (Айтор Урибарри) [2017, Ужасы, триллер, комедия, WEB-DL 720p] MVO ["Синема УС"]

Полуночник через торрент pb.wtf

Размер: 3.59 GB | Добавлен: 3 года 8 мес. назад | Торрент скачан:16 раз
Смотреть онлайн | Скачать   

30-01-2019 18:17 Полуночник Скачать торрент  

Полуночник / The Midnight ManГод выпуска: 2017
Страна: США
Жанр: Ужасы, триллер, комедия
Продолжительность: 01:29:02
Перевод: Любительский (многоголосый) | "Синема УС"
Субтитры: отсутствуют

Режиссер: Айтор Урибарри

rating

В ролях:

Кен Фори, Венди Уэлдон, Томми Дэй Кэри, Тони Д. Чех, Кит Бионди, Стивен Уолтер, Меган Му

Описание:

Джессика и Кайл едут в уединенный домик в горах в надежде восстановить рушащийся брак. Однако они не знают, что выяснение отношений - не самое страшное, что случится с ними после полуночи.

Качество: WEB-DL 720p
Формат: MKV

Видео: h.264, 5 382 kb/s, 1280x536
Аудио#1: Русский, (AC3, 2 ch, 384 Кбит/с)
скриншот  скриншот  скриншот  

Общее
Уникальный идентификатор : 175715068759896084370808432416885637770 (0x84317DC33F183854B2F0DCF34C69028A)
Полное имя : D:\TheMidnightMan.2O18.P.WEB-DL.72Op_KOSHARA.mkv
Формат : Matroska
Версия формата : Version 2
Размер файла : 3,59 Гбайт
Продолжительность : 1 ч. 29 м.
Режим общего битрейта : Переменный
Общий поток : 5768 Кбит/сек
Дата кодирования : UTC 2019-01-30 15:42:51
Программа кодирования : mkvmerge v8.3.0 ('Over the Horizon') 64bit
Библиотека кодирования : libebml v1.3.1 + libmatroska v1.4.2

Видео
Идентификатор : 1
Формат : AVC
Формат/Информация : Advanced Video Codec
Профиль формата : [email protected]
Параметр CABAC формата : Да
Параметр RefFrames формата : 4 кадра
Идентификатор кодека : V_MPEG4/ISO/AVC
Продолжительность : 1 ч. 29 м.
Вид битрейта : Переменный
Битрейт : 5382 Кбит/сек
Максимальный битрейт : 6000 Кбит/сек
Ширина : 1280 пикселей
Высота : 536 пикселей
Соотношение сторон : 2,40:1
Режим частоты кадров : Постоянный
Частота кадров : 23,976 (24000/1001) кадра/сек
Стандарт вещания : Component
Цветовое пространство : YUV
Субдискретизация насыщенности : 4:2:0
Битовая глубина : 8 бит
Тип развёртки : Прогрессивная
Бит/(Пиксели*Кадры) : 0.320
Размер потока : 3,28 Гбайт (91%)
Default : Да
Forced : Нет
Цветовой диапазон : Limited
Основные цвета : BT.709
Характеристики трансфера : BT.709
Коэффициенты матрицы : BT.709

Аудио
Идентификатор : 2
Формат : AC-3
Формат/Информация : Audio Coding 3
Расширение режима : CM (complete main)
Параметр Endianness формата : Big
Идентификатор кодека : A_AC3
Продолжительность : 1 ч. 29 м.
Вид битрейта : Постоянный
Битрейт : 384 Кбит/сек
Каналы : 2 канала
Расположение каналов : Front: L R
Частота : 48,0 КГц
Частота кадров : 31,250 кадров/сек (1536 spf)
Метод сжатия : С потерями
Размер потока : 245 Мбайт (7%)
Default : Да
Forced : Нет




Скачать Полуночник через торрент https://a.radikal.ru/a39/1901/01/4d4e87f7715c.jpg Скачать, смотреть онлайн Полуночник бесплантно в хорошем качестве Описание: Джессика и Кайл едут в уединенный домик в горах в надежде восстановить рушащийся брак. Однако они не знают, что выяснение ... 10 10 2
Торрент: Зарегистрирован [2019-01-30 18:17] · скачан: 16 раз
Статус: T временная
Размер: 3.59 GB
Как cкачать? Как скачать Полуночник через торрент | UTorrent

% Раздел Тема Автор DL S | L
T Фильмы (мультфильмы) cо спонсором показа (Новинки AVI/MKV) [ 1.36 GB ] Полуночник / The Midnight Man | MVO | DLRip bober100 Скачать
1 | 0

28-11-2019 20:33  


Отключить вcю реклaмy на сайте, в т.ч. и в плеере онлайн просмотра!

    Дорогой пользователь! Огромная просьба, поблагодарите релизера, оцените раздачу и оставьте свои комментарий, если Вы скачали Полуночник через торрент бесплатно!!
    Комментировать посты могут только пользователи прошедшие не сложную регистрацию
    Показать сообщения:    


    Полуночник через торрент
    Скачать бесплатно Полуночник
    Полуночник скачать торрент
    Полуночник смотреть онлайн
    Cкачать фильм Полуночник бесплатно
    Полуночник скачать торрент в хорошем качестве
    Полуночник смотреть онлайн бесплатно в хорошем качестве
    Вы не можете начинать темы
    Вы не можете отвечать на сообщения
    Вы не можете редактировать свои сообщения
    Вы не можете удалять свои сообщения
    Вы не можете голосовать в опросах
    Вы не можете прикреплять файлы к сообщениям
    Вы можете скачивать файлы