Ссылка на приватное зеркало нашего сайта всего за 1$. Внимание количество ограничено!!!

2 сезон

iTunes

1 сезон

1

2 сезон

2 сезон

iTunes

1 сезон

RePack

30

Ultimate

ВАЖНО

ИГРА 18+

pack

RePack

MK11
pack

Забери бонус

RePack

jed

!!Акция!!

Alien_Rage

RePack

fifa19

RePack

Assassins Creed: Odyssey

RePack

NEED FOR SPEED™ PAYBACK

4 сезон

9 сезон

Бесстыжие 9 сезон

Все сериалы

все сериалы на PB.wtf

RePack

FAR CRY 5
  

Сирена / Siren / Сезон: 2 / Серии: 1-16 из 16 (Ник Копус) [2019, фэнтези, драма WEB-DLRip] MVO [AlexFilm] pb.wtf

Сирена через торрент pb.wtf

Размер: 7.72 GB | Добавлен: 1 год 3 мес. назад | Торрент скачан:35 раз
Скачать  

31-01-2019 02:07 Сирена Скачать торрент  

Сирена / Siren Год выпуска: 2019
Страна: США
Жанр: фэнтези, драма
Продолжительность: ~ 00:45:00 мин
Перевод: Профессиональный (многоголосый закадровый) | AlexFilm
Субтитры: нет

Режиссёр: Ник Копус, Стив Эделсон, Джон Бэдэм

В ролях: Алекс Роу, Элайн Пауэлл, Фола Эванс-Экинбола, Йен Вердён, Рина Оуэн, Сибонгиле Мламбо, Чад Рук, Кертис Льюм, Рон Юань, Тэмми Гиллис и другие

Описание: Бристоль Коув давно известен своими легендами о русалках. Говорят, что именно здесь они и обитают. Местные жители сделали эти легенды частью своей жизни и даже проводят посвященные русалкам праздники. Однажды в городке появляется странная девушка. Ею увлекается морской биолог Бен, не подозревающий о мрачной тайне, которую скрывает Рин. Одновременно в городке начинают происходить и другие странные события. Какие тайны скрывает море? Русалки совсем не так добры, как в детских сказках. Когда тайна откроется, начнется эпическая битва между людьми и морем.

rating

Качество: WEB-DLRip
Формат: AVI

Видео: 720x400 (16:9), 23.976 fps, XviD ~1400 kbps avg, 0.198 bit/pixel
Аудио Rus: 48 kHz, MPEG Layer 3, 2 ch, ~128.00 kbps avg
Аудио Eng: 48 kHz, MPEG Layer 3, 2 ch, ~128.00 kbps avg


Реклама: аудио (два раза, в начале 10 и в конце 10 сек.)
Релиз:

Перевод: Алиса Голланова
Монтаж и сведение звука: Михаил Шорыгин
Роли озвучивали:

Татьяна Манетина
Маргарита Корш
Кирилл Патрино
Константин Федосеев
Алексей Никитин
Михаил Федосеев

скриншот  скриншот  скриншот  скриншот  
Формат : AVI
Формат/Информация : Audio Video Interleave
Размер файла : 494 Мбайт
Продолжительность : 42 м. 13 с.
Общий поток : 1637 Кбит/сек
Название фильма : Siren 2x01 @ AlexFilm
Программа кодирования : VirtualDubMod 1.5.10.2 (build 2540/release)
Библиотека кодирования : VirtualDubMod build 2540/release

Видео
Идентификатор : 0
Формат : MPEG-4 Visual
Профиль формата : Advanced Simple@L5
Параметр BVOP формата : Нет
Параметр QPel формата : Нет
Параметр GMC формата : Без точки перехода
Параметр матрицы формата : Default (MPEG)
Идентификатор кодека : XVID
Идентификатор кодека/Подсказка : XviD
Продолжительность : 42 м. 13 с.
Битрейт : 1367 Кбит/сек
Ширина : 720 пикселей
Высота : 400 пикселей
Соотношение сторон : 16:9
Частота кадров : 23,976 (23976/1000) кадра/сек
Цветовое пространство : YUV
Субдискретизация насыщенности : 4:2:0
Битовая глубина : 8 бит
Тип развёртки : Прогрессивная
Метод сжатия : С потерями
Бит/(Пиксели*Кадры) : 0.198
Размер потока : 413 Мбайт (84%)
Библиотека кодирования : XviD 67

Аудио #1
Идентификатор : 1
Формат : MPEG Audio
Версия формата : Version 1
Профиль формата : Layer 3
Режим : Joint stereo
Расширение режима : MS Stereo
Идентификатор кодека : 55
Идентификатор кодека/Подсказка : MP3
Продолжительность : 42 м. 13 с.
Вид битрейта : Постоянный
Битрейт : 128 Кбит/сек
Каналы : 2 канала
Частота : 48,0 КГц
Метод сжатия : С потерями
Размер потока : 38,7 Мбайт (8%)
Выравнивание : Соединение по промежуткам
Продолжительность промежутка : 42 мс. (1,00 видеокадр)
Время предзагрузки промежутка : 504 мс.
Заголовок : Russian (AlexFilm)
Библиотека кодирования : LAME3.99.5

Аудио #2
Идентификатор : 2
Формат : MPEG Audio
Версия формата : Version 1
Профиль формата : Layer 3
Режим : Joint stereo
Расширение режима : MS Stereo
Идентификатор кодека : 55
Идентификатор кодека/Подсказка : MP3
Продолжительность : 42 м. 13 с.
Вид битрейта : Постоянный
Битрейт : 128 Кбит/сек
Каналы : 2 канала
Частота : 48,0 КГц
Метод сжатия : С потерями
Размер потока : 38,7 Мбайт (8%)
Выравнивание : Соединение по промежуткам
Продолжительность промежутка : 42 мс. (1,00 видеокадр)
Время предзагрузки промежутка : 504 мс.
Заголовок : English
Библиотека кодирования : LAME3.90.3
Внимание! Раздача ведётся путём добавления новых серий; при каждом добавлении создаётся новый торрент. Чтобы начать докачку новой серии, пользователям необходимо сделать следующее:
(1) остановить скачивание,
(2) удалить старый торрент у себя из клиента (старые серии удалять не надо),
(3) скачать новый торрент и запустить его у себя в клиенте вместо старого, при этом указать клиенту путь в старую папку куда и должно происходить скачивание новых серий.
Ваш клиент при этом должен произвести хеширование (проверку) старой папки (если не производит сам - помогите ему сделать это), и будет докачивать только те серии которых у вас ещё нет. Старые серии при этом не удаляются, а продолжают раздаваться!
Eсли вы уже удалили старые серии, то предотвратить повторную закачку старых серий можно, отжав галочку в соответствующих местах при запуске нового торрента. По возможности, желательно не удалять старые серии как можно дольше чтобы релизёр не столько продолжал раздавать старые серии, а смог сконцентрироваться на новых.
pb.wtf



Скачать Сирена через торрент https://i109.fastpic.ru/big/2019/0128/a5/dce99a3594794fd593f04e0a292268a5.jpg Скачать фильм Сирена через торрент бесплантно в хорошем качестве Описание: Бристоль Коув давно известен своими легендами о русалках. Говорят, что именно здесь они и обитают. Местные жители сделали эти ... 10 10 5
Торрент: Зарегистрирован [2019-08-05 06:46] · скачан: 35 раз
Статус: √ проверено
Размер: 7.72 GB
Как cкачать? Как скачать Сирена через торрент | qTorrent

% Раздел Тема Автор DL S | L
Зарубежные сериалы [ 24.08 GB ] Сирена / Siren / Сезон: 2 / Серии: 1-16 из 16 [2019 WEB-DL 720p] MVO [TVShows] bober100 Скачать
1 | 0
Зарубежные сериалы [ 46.98 GB ] Сирена / Siren / Сезон: 2 / Серии: 1-16 из 16 [2019 WEB-DL 1080p] DUB [Кириллица] bober100 Скачать
1 | 0
Зарубежные сериалы [ 11.26 GB ] Сирена / Siren / Сезон: 2 / Серии: 1-16 из 16 [2019 WEB-DLRip] MVO [TVShows] bober100 Скачать
1 | 0
Зарубежные сериалы [ 22.56 GB ] Сирена / Siren / Сезон: 2 / Серии: 1-16 из 16 [2019 WEBRip 720p] MVO [LostFilm] bober100 Скачать
1 | 0
Зарубежные сериалы [ 3.6 GB ] Сирена / Siren / Сезон: 2 / Серии: 1-8 из 16 [2019 WEB-DLRip] MVO [Lostfilm] bober100 Скачать
1 | 0
Зарубежные сериалы [ 45.97 GB ] Сирена / Siren / Сезон: 2 / Серии: 1-16 из 16 [2019 WEB-DL 1080p] [MVO] killermax2013 Скачать
1 | 0
Зарубежные сериалы [ 22.88 GB ] Сирена / Siren / Сезон: 2 / Серии: 1-16 из 16 [2019 WEB-DL 720p] MVO [AlexFilm] bober100 Скачать
1 | 0

28-11-2019 20:33  

Отключить всю рекламу на сайте

    Дорогой пользователь! Огромная просьба, поблагодарите релизера, оцените раздачу и оставьте свои комментарий, если Вы скачали Сирена через торрент бесплатно! Внесите свою лепту в развитие PiratBit!
    Комментировать посты могут только пользователи прошедшие не сложную регистрацию
    Показать сообщения:    

    Сирена через торрент
    Скачать бесплатно Сирена
    Сирена скачать торрент
    Сирена смотреть онлайн
    Cкачать фильм Сирена бесплатно
    Сирена скачать торрент в хорошем качестве
    Сирена смотреть онлайн бесплатно в хорошем качестве


    Вы не можете начинать темы
    Вы не можете отвечать на сообщения
    Вы не можете редактировать свои сообщения
    Вы не можете удалять свои сообщения
    Вы не можете голосовать в опросах
    Вы не можете прикреплять файлы к сообщениям
    Вы можете скачивать файлы