новый адрес
Ссылка на приватное зеркало всего за 1$. Внимание количество ограничено!!!

iTunes

1+1

iTunes

мы

WEB-DL

1

iTunes

Чернобыль

iTunes

Ральф против интернета

Лицензия

ПШазам

Лицензия

Оно 2

Лицензия

30
pack

Вам бонус

ВАЖНО

!!Акция!!

Alien_RageХит недели

RePack

Resident Evil 21

ИГРА 18+

pack

RePack

jed

!!Акция!!

Alien_Rage

RePack

fifa19

RePack

Assassins Creed: Odyssey

RePack

NEED FOR SPEED™ PAYBACK

3 сезон

9 сезон

Бесстыжие 9 сезон

Все сериалы

все сериалы на PB.wtf

RePack

FAR CRY 5
Ребята, катастрофически не хватает 1900р. для оплаты серверов за Октябрь (всвязи с блокировками трафик упал в 3 раза), 1-2р., выручайте.
  

Хроники хищных городов / Mortal Engines (Кристиан Риверс) [2018, фантастика, фэнтези, боевик, триллер, приключения, WEB-DLRip-AVC] DUB [iTunes] - ExKinoRay pb.wtf

Хроники хищных городов через торрент pb.wtf

Раздают: 18 [ 0 KB/s ]
Размер: 2.05 GB | Добавлен: 10 мес. назад | Торрент скачан:4937 раз
Скачать  

31-01-2019 03:04 Хроники хищных городов Скачать торрент  

Информация о фильме
Название: Хроники хищных городов
Оригинальное название: Mortal Engines
Год выпуска: 2018
Жанр: Фантастика, фэнтези, боевик, триллер, приключения
Режиссер: Кристиан Риверс
В ролях: Гера Хилмарсдоттир, Роберт Шиэн, Хьюго Уивинг, Джихе, Ронан Рафтери, Лейла Джордж, Патрик Мэлахайд, Стивен Лэнг, Колин Сэлмон, Марк Митчинсон, Меник Гунератне, Реге Пейдж, Фрэнки Адамс, Лейфур Сигурдарсон, Кан Уэст, Эндрю Лииз, Ки Чан, Сара Пирс, Марк Хэдлоу, Карен Писториус, Поппи Маклеод, Джоэл Тобек, Йосон Ан

Описание:
Прошли тысячелетия после того, как мир настиг апокалипсис. Человечество адаптировалось и теперь живет по новым правилам. Гигантские движущиеся мегаполисы рассекают пустоши и поглощают маленькие города ради ресурсов. Том Нэтсуорти из нижнего уровня великого Лондона оказывается в смертельной опасности, когда на его пути появляется скрывающаяся от закона бунтарка Эстер Шоу. Они не должны были встретиться, но им суждено изменить будущее.



Страна: Новая Зеландия, США
Студия: Media Rights Capital (MRC), Scholastic Productions, Silvertongue Films
Продолжительность: 02:08:21
Перевод: Дублированный | iTunes

Формат: MKV
Качество: WEB-DLRip-AVC
Видео: MPEG-4 AVC, 968x402 (2.40:1), 23.976 fps, 1896 Kbps, 0.203 bit/pixel
Аудио : 48 kHz, AC3, 5.1, 384 Kbps | RUS |
General
Unique ID : 222052552373449239421887411197974803517 (0xA70DC4178D21004BA5A21D7CF0D1F43D)
Complete name : D:\Mortal.Engines.2018.WEB-DLRip.AVC.ExKinoRay.mkv
Format : Matroska
Format version : Version 2
File size : 2.05 GiB
Duration : 2 h 8 min
Overall bit rate : 2 281 kb/s
Movie name : Mortal Engines 2018 from ExKinoRay
Encoded date : UTC 2019-01-31 02:47:48
Writing application : mkvmerge v5.6.0 ('Kenya Kane') built on May 27 2012 16:44:04
Writing library : libebml v1.2.3 + libmatroska v1.3.0

Video
ID : 1
Format : AVC
Format/Info : Advanced Video Codec
Format profile : High@L4.1
Format settings, CABAC : Yes
Format settings, ReFrames : 11 frames
Codec ID : V_MPEG4/ISO/AVC
Duration : 2 h 8 min
Bit rate : 1 896 kb/s
Width : 968 pixels
Height : 402 pixels
Display aspect ratio : 2.40:1
Frame rate mode : Constant
Frame rate : 23.976 (24000/1001) FPS
Original frame rate : 23.976 (23976/1000) FPS
Color space : YUV
Chroma subsampling : 4:2:0
Bit depth : 8 bits
Scan type : Progressive
Bits/(Pixel*Frame) : 0.203
Stream size : 1.66 GiB (81%)
Title : Enigma
Writing library : x264 core 152 r2851 ba24899
Encoding settings : cabac=1 / ref=11 / deblock=1:-2:-2 / analyse=0x3:0x113 / me=umh / subme=10 / psy=1 / psy_rd=1.05:0.08 / mixed_ref=1 / me_range=32 / chroma_me=1 / trellis=2 / 8x8dct=1 / cqm=0 / deadzone=21,11 / fast_pskip=0 / chroma_qp_offset=-3 / threads=12 / lookahead_threads=3 / sliced_threads=0 / nr=0 / decimate=0 / interlaced=0 / bluray_compat=0 / constrained_intra=0 / bframes=10 / b_pyramid=2 / b_adapt=2 / b_bias=0 / direct=3 / weightb=1 / open_gop=0 / weightp=2 / keyint=240 / keyint_min=23 / scenecut=40 / intra_refresh=0 / rc=2pass / mbtree=0 / bitrate=1896 / ratetol=1.0 / qcomp=0.60 / qpmin=0 / qpmax=51 / qpstep=4 / cplxblur=20.0 / qblur=0.5 / ip_ratio=1.40 / pb_ratio=1.30 / aq=1:1.00
Default : Yes
Forced : No
Color range : Limited
Color primaries : BT.709
Transfer characteristics : BT.709
Matrix coefficients : BT.709

Audio
ID : 2
Format : AC-3
Format/Info : Audio Coding 3
Mode extension : CM (complete main)
Format settings, Endianness : Big
Codec ID : A_AC3
Duration : 2 h 8 min
Bit rate mode : Constant
Bit rate : 384 kb/s
Channel(s) : 6 channels
Channel positions : Front: L C R, Side: L R, LFE
Sampling rate : 48.0 kHz
Frame rate : 31.250 FPS (1536 spf)
Compression mode : Lossy
Stream size : 353 MiB (17%)
Title : iTunes
Language : Russian
Default : Yes
Forced : No

Menu
00:00:00.000 : en:1
00:09:25.398 : en:2
00:16:14.306 : en:3
00:24:21.625 : en:4
00:31:25.589 : en:5
00:35:54.065 : en:6
00:41:28.816 : en:7
00:44:54.812 : en:8
00:50:17.801 : en:9
00:54:22.170 : en:10
01:00:52.392 : en:11
01:07:13.064 : en:12
01:11:13.846 : en:13
01:17:38.730 : en:14
01:25:26.614 : en:15
01:33:31.389 : en:16
01:39:29.538 : en:17
01:47:59.255 : en:18
01:52:12.548 : en:19
01:58:34.513 : en:20
БЕЗ КАКОЙ-ЛИБО РЕКЛАМЫ!Релиз от:

Автор релиза: pb.wtf



Скачать Хроники хищных городов через торрент https://b.radikal.ru/b20/1901/53/31d9334a6785.png Скачать фильм Хроники хищных городов через торрент бесплантно в хорошем качестве Описание: Прошли тысячелетия после того, как мир настиг апокалипсис. Человечество адаптировалось и теперь живет по новым правилам. ... 9.8 10 78
Info! Золотая раздача, скачанное не засчитывается.
Торрент: Зарегистрирован [2019-01-31 03:04] · скачан: 4 937 раз
Статус: √ проверено
Размер: 2.05 GB
Как cкачать? Как скачать Хроники хищных городов через торрент | qTorrent

% Раздел Тема Автор DL S | L
Фильмы 2018 [DVDrip, WEB-DLRip, HDrip] (DUB, MVO) [ 2.59 GB ] Хроники хищных городов / Mortal Engines [2018 BDRip-AVC] DUB [] - ExKinoRay Enigma2010 Скачать
5 | 0

28-11-2019 20:33  

Отключить всю рекламу на сайте

31-01-2019 06:45 Хроники хищных городов Скачать торрент  

Спасибоpb.wtf



31-01-2019 16:52 Хроники хищных городов Скачать торрент  

а сэмпл хде???pb.wtf



31-01-2019 17:07 Хроники хищных городов Скачать торрент  

Ребят скорости пожалуйста!!! Спасибо.pb.wtf



02-02-2019 14:06 Хроники хищных городов Скачать торрент  

спасиббpb.wtf



03-02-2019 06:46 Хроники хищных городов Скачать торрент  

Ожидал лучшего, так себе на один разpb.wtf



04-02-2019 11:28 Хроники хищных городов Скачать торрент  

Как обычно - Голливуд катится все ниже и ниже. Снимают откровенный шлак. Забивают отсутствие хоть какого-то морального сюжета обилием спецэффектов.

Такое только торрентами и качать (чтобы понимать о чем речь), а не ходить в кино.pb.wtf



07-02-2019 12:02 Хроники хищных городов Скачать торрент  

Бред!... Сюжета нет! кино для олигофренов!...pb.wtf



07-02-2019 19:04 Хроники хищных городов Скачать торрент  

Фильм не очень, досмотрел с 3 раза... но зато толерантность присутствует, все рассы в фильме как и полагается присутствуют... странно, что геев не было, оскар точно не получат...pb.wtf



08-02-2019 15:25 Хроники хищных городов Скачать торрент  

Полное г.... Не тратьте времяpb.wtf



09-02-2019 09:13 Хроники хищных городов Скачать торрент  

artlider писал(а):

Фильм не очень, досмотрел с 3 раза... но зато толерантность присутствует, все рассы в фильме как и полагается присутствуют... странно, что геев не было, оскар точно не получат...

Это точно. обидятся.pb.wtf



24-02-2019 14:13 Хроники хищных городов Скачать торрент  

а ещё эта долбаная музыка!!!это жеесть просто!!!ну реально перебор уже с ней! такое впечатление,что сами герои пытаются перекричать эту е*баную музыку,но у них нихрена не получается! pb.wtf



24-02-2019 16:24 Хроники хищных городов Скачать торрент  

artlider писал(а):

Фильм не очень, досмотрел с 3 раза... но зато толерантность присутствует, все рассы в фильме как и полагается присутствуют... странно, что геев не было, оскар точно не получат...

Ага,и феминистки захлопают в ладоши!Какие все девки в фильме умные и крутые,а мужики,ну почти прям ВСЕ говнюки тупые. Я ОРУ ВАЩЕ какой шлак,ейбогу!pb.wtf



    Дорогой пользователь! Огромная просьба, поблагодарите релизера, оцените раздачу и оставьте свои комментарий, если Вы скачали Хроники хищных городов через торрент бесплатно! Внесите свою лепту в развитие PiratBit!
    Комментировать посты могут только пользователи прошедшие не сложную регистрацию
    Показать сообщения:    

    Хроники хищных городов через торрент
    Скачать бесплатно Хроники хищных городов
    Хроники хищных городов скачать торрент
    Хроники хищных городов смотреть онлайн
    Cкачать фильм Хроники хищных городов бесплатно
    Хроники хищных городов скачать торрент в хорошем качестве
    Хроники хищных городов смотреть онлайн бесплатно в хорошем качестве


    Вы не можете начинать темы
    Вы не можете отвечать на сообщения
    Вы не можете редактировать свои сообщения
    Вы не можете удалять свои сообщения
    Вы не можете голосовать в опросах
    Вы не можете прикреплять файлы к сообщениям
    Вы можете скачивать файлы