Ссылка на приватное зеркало нашего сайта всего за 1$. Внимание количество ограничено!!!

2 сезон

iTunes

1 сезон

1

iTunes

iTunes

iTunes

1 сезон

RePack

30

ИГРА 18+

pack

ВАЖНО

!!Акция!!

Alien_RageХит недели

RePack

MK11
pack

Забери бонус

RePack

jed

!!Акция!!

Alien_Rage

RePack

fifa19

RePack

Assassins Creed: Odyssey

RePack

NEED FOR SPEED™ PAYBACK

4 сезон

9 сезон

Бесстыжие 9 сезон

Все сериалы

все сериалы на PB.wtf

RePack

FAR CRY 5
  

Возмездие / Сезон: 1 / Серии: 1-10 из 10 (Давид Ткебучава, Михаил Кабанов) [2019, Боевик, драма, WEBRip-AVC] pb.wtf

Возмездие через торрент pb.wtf

Размер: 7.43 GB | Добавлен: 1 год 8 мес. назад | Торрент скачан:225 раз
Скачать  

31-01-2019 08:29 Возмездие Скачать торрент  

Возмездие Год выпуска: 2019
Страна: Россия
Жанр: Боевик, драма
Продолжительность: ~ 00:46:00
Субтитры: отсутствуют

Режиссер: Давид Ткебучава, Михаил Кабанов



В ролях:

Павел Прилучный, Агата Муцениеце, Зоя Бербер, Александр Макогон, Сергей Юшкевич, Максим Пинскер, Николай Козак, Анна Капалева, Александр Клюквин, Александр Гришин, Иван Косичкин, Сергей Годин, Александр Константинов, Игорь Хрипунов, Виталия Корниенко, Филипп Азаров, Мария Малиновская, Юлия Паранова, Вероника Тимофеева

Описание:

Юрий Шатохин — опытный спецназовец ГРУ. Его отец всю жизнь проработал на комбинате и хотел, чтобы сын унаследовал его дело, но Юра выбрал свой путь — военную службу. Жена Света, не дождавшись мужа из очередной командировки в горячую точку, уходит к банкиру Смирнову... Однажды во время боевой операции Юра спасает сирийскую девочку. В тот момент он понимает, как сильно скучает по своей дочери Нике, и принимает решение вернуться домой. Но в родном городе царит разруха, а любимая дочь — в опасности из-за отчима, который решил побороться за большие деньги. Покинув одну войну, Шатохин фактически попадает на другую. Он ставит перед собой цель — восстановить справедливость и защитить дочь. В этой борьбе Юра встречает верного друга и соратника Катю...

Качество: WEBRip-AVC
Формат: MKV

Видео: MPEG-4 AVC, ~ 2000 Кбит/с, 1024x432, 25 кадр/с
Аудио: AC3, 2 ch, 192 Кбит/с
скриншот  скриншот  скриншот  скриншот  

Общее
Уникальный идентификатор : 186188138112279365053490796457414524514 (0x8C1287F2C33EF687BE745DF59E0A7E62)
Полное имя : C:\Vozmezdie.(2018).WEBRip.(AVC).Files-x\01.Vozmezdie.(2018).WEBRip.(AVC).by.Серый1779.Files-x.mkv
Формат : Matroska
Версия формата : Version 2
Размер файла : 816 Мбайт
Продолжительность : 52 м. 2 с.
Общий поток : 2193 Кбит/сек
Дата кодирования : UTC 2019-01-28 20:45:12
Программа кодирования : mkvmerge v7.8.0 ('River Man') 32bit built on Apr 3 2015 12:11:22
Библиотека кодирования : libebml v1.3.1 + libmatroska v1.4.2

Видео
Идентификатор : 1
Формат : AVC
Формат/Информация : Advanced Video Codec
Профиль формата : High@L4.1
Настройки формата : CABAC / 9 Ref Frames
Параметр CABAC формата : Да
Параметр RefFrames формата : 9 кадров
Идентификатор кодека : V_MPEG4/ISO/AVC
Продолжительность : 52 м. 2 с.
Битрейт : 2000 Кбит/сек
Ширина : 1024 пикселя
Высота : 432 пикселя
Соотношение сторон : 2,40:1
Режим частоты кадров : Постоянный
Частота кадров : 25,000 кадров/сек
Цветовое пространство : YUV
Субдискретизация насыщенности : 4:2:0
Битовая глубина : 8 бит
Тип развёртки : Прогрессивная
Бит/(Пиксели*Кадры) : 0.181
Размер потока : 729 Мбайт (89%)
Библиотека кодирования : x264 core 146 r2538 121396c
Настройки программы : cabac=1 / ref=9 / deblock=1:-2:-1 / analyse=0x3:0x133 / me=umh / subme=9 / psy=1 / psy_rd=1.00:0.15 / mixed_ref=1 / me_range=32 / chroma_me=1 / trellis=2 / 8x8dct=1 / cqm=0 / deadzone=21,11 / fast_pskip=0 / chroma_qp_offset=-3 / threads=18 / lookahead_threads=3 / sliced_threads=0 / nr=0 / decimate=1 / interlaced=0 / bluray_compat=0 / constrained_intra=0 / bframes=9 / b_pyramid=2 / b_adapt=2 / b_bias=0 / direct=1 / weightb=1 / open_gop=0 / weightp=2 / keyint=250 / keyint_min=25 / scenecut=40 / intra_refresh=0 / rc=2pass / mbtree=0 / bitrate=2000 / ratetol=1.0 / qcomp=0.60 / qpmin=0 / qpmax=69 / qpstep=4 / cplxblur=20.0 / qblur=0.5 / ip_ratio=1.40 / pb_ratio=1.30 / aq=2:1.00
Default : Да
Forced : Нет
Цветовой диапазон : Limited
Основные цвета : BT.709
Характеристики трансфера : BT.709
Коэффициенты матрицы : BT.709

Аудио
Идентификатор : 2
Формат : AC-3
Формат/Информация : Audio Coding 3
Коммерческое название : Dolby Digital
Идентификатор кодека : A_AC3
Продолжительность : 52 м. 2 с.
Вид битрейта : Постоянный
Битрейт : 192 Кбит/сек
Каналы : 2 канала
Channel layout : L R
Частота : 48,0 КГц
Частота кадров : 31,250 кадров/сек (1536 SPF)
Битовая глубина : 16 бит
Метод сжатия : С потерями
Размер потока : 71,5 Мбайт (9%)
ServiceKind/String : Complete Main
Default : Да
Forced : Нет

Когда раздача ведётся путём добавления новых серий, при каждом добавлении создётся новый торрент. Чтобы начать докачку новой серии, пользователям необходимо сделать следующее:
(1) остановить скачивание,
(2) удалить старый торрент у себя из клиента (старые серии удалять не надо),
(3) скачать новый торрент и запустить его у себя в клиенте вместо старого, при этом указать клиенту путь в старую папку, куда и должно происходить скачивание новых серий.
Ваш клиент при этом должен произвести хеширование (проверку) старой папки (если не производит сам - помогите ему сделать это), и будет докачивать только те серии, которых у вас ещё нет. Старые серии при этом не удаляются, а продолжают раздаваться!
Eсли вы уже удалили старые серии, то предотвратить повторную закачку старых серий можно, отжав галочку в соответсвующих местах при запуске нового торрента. По возможности, желательно не удалять старые серии как можно дольше, чтобы релизер не столько продолжал раздавать старые серии, а смог сконцентрироваться на новых.
pb.wtf



Скачать Возмездие через торрент https://c.radikal.ru/c08/1901/1f/d3a82e18e1c9.jpg Скачать фильм Возмездие через торрент бесплантно в хорошем качестве Описание: Юрий Шатохин — опытный спецназовец ГРУ. Его отец всю жизнь проработал на комбинате и хотел, чтобы сын унаследовал его дело, но ... 9.6 10 7
Торрент: Зарегистрирован [2019-02-02 09:49] · скачан: 225 раз
Статус: √ проверено
Размер: 7.43 GB
Как cкачать? Как скачать Возмездие через торрент | qTorrent

% Раздел Тема Автор DL S | L
Зарубежные сериалы [ 38.87 GB ] Возмездие / Месть / Реванш / Revenge / Сезон: 1 / Серии: 1-22 из 22 [2011 WEB-DL 1080p] MVO [TVShows] bober100 Скачать
1 | 0
Наши сериалы [ 10.4 GB ] Белая стрела. Возмездие / Сезон: 1 / Серии: 1-12 из 12 Алексей Шикин) [2015 WEB-DL 1080p] bober100 Скачать
1 | 0
Наши сериалы [ 6.1 GB ] Возмездие / Сезон: 1 / Серии: 1-10 из 10 [2019 WEB-DLRip] bober100 Скачать
1 | 0
Наши сериалы [ 12.51 GB ] Возмездие / Сезон: 1 / Серии: 1-10 из 10 [2019 WEBRip 720p] bober100 Скачать
2 | 0
Наши сериалы [ 5.86 GB ] Возмездие / Сезон: 1 / Серии: 1-10 из 10 [2019 SATRip] bober100 Скачать
1 | 0
Наши сериалы [ 20.81 GB ] Возмездие / Сезон: 1 / Серии: 1-10 из 10 [2019 WEB-DL 1080p] bober100 Скачать
1 | 0

28-11-2019 20:33  

Отключить всю рекламу на сайте

    Дорогой пользователь! Огромная просьба, поблагодарите релизера, оцените раздачу и оставьте свои комментарий, если Вы скачали Возмездие через торрент бесплатно! Внесите свою лепту в развитие PiratBit!
    Комментировать посты могут только пользователи прошедшие не сложную регистрацию
    Показать сообщения:    

    Возмездие через торрент
    Скачать бесплатно Возмездие
    Возмездие скачать торрент
    Возмездие смотреть онлайн
    Cкачать фильм Возмездие бесплатно
    Возмездие скачать торрент в хорошем качестве
    Возмездие смотреть онлайн бесплатно в хорошем качестве


    Вы не можете начинать темы
    Вы не можете отвечать на сообщения
    Вы не можете редактировать свои сообщения
    Вы не можете удалять свои сообщения
    Вы не можете голосовать в опросах
    Вы не можете прикреплять файлы к сообщениям
    Вы можете скачивать файлы