Ссылка на приватное зеркало всего за 1$. Внимание количество ограничено!!!

OK

1+1

iTunes

мы

OK

1

WEB-DLRip

Джокер

Пифагор

Ведьмак / The Witcher сериал

Лицензия

ПШазам

ОК

Оно 2

iTunes

30
pack

Вам бонус

ВАЖНО

!!Акция!!

Alien_RageХит недели

RePack

Resident Evil 21

ИГРА 18+

pack

RePack

jed

RePack

fifa19

RePack

Assassins Creed: Odyssey

RePack

NEED FOR SPEED™ PAYBACK

4 сезон

9 сезон

Бесстыжие 9 сезон

Все сериалы

все сериалы на PB.wtf

RePack

FAR CRY 5
  

Мертвец / Dead Man (Джим Джармуш) [1995, драма, вестерн, фэнтези, BDRip 720p by msltel] 4 x MVO, 5 x AVO pb.wtf

Мертвец через торрент pb.wtf

Размер: 7.6 GB | Добавлен: 11 мес. назад | Торрент скачан:92 раза
Скачать  

31-01-2019 09:54 Мертвец Скачать торрент  

Название: Мертвец
Оригинальное название: Dead Man
Год выпуска: 1995
Страна: США
Жанр: драма, вестерн, фэнтези
Продолжительность: 02:01:06
Перевод: профессиональный многоголосый, авторский

Режиссер: Джим Джармуш
В ролях: Джонни Депп, Гэри Фармер, Криспин Гловер, Лэнс Хенриксен, Майкл Уинкотт, Юджин Бирд, Джон Хёрт, Роберт Митчэм, Игги Поп, Гэбриел Бирн

О фильме: После смерти родителей молодой счетовод Уильям Блэйк в надежде на работу приезжает на Дикий Запад, где, по злой воле случая, за его голову назначается награда в 500 долларов. Раненного в грудь возле сердца, его выхаживает индеец, которого много лет возили по городам Америки и Англии в качестве живого экспоната. Он принял этого юношу в очках за поэта Уильяма Блэйка, чьи стихи запали в сердце «дикаря», и стал его ангелом-хранителем. А опекаемый, лишившись очков, сам вдруг стал стрелять без промаха, увеличивая стоимость своей головы, оставляя за собой след из трупов лиц, охочих до награды, и приближаясь к тому «месту, откуда приходят и куда возвращаются все духи»...



Качество: BDRip 720p
Формат: MKV
Видео: MPEG-4 AVC, 7064 Кбит/с, 1280x720
Аудио 1: русский, AC3, 192 kbps, 2 ch, 48 kHz [закадровый многоголосый, OPT Selena International]
Аудио 2: русский, AC3, 192 kbps, 2 ch, 48 kHz [авторский, Дмитрий Пучков (Гоблин)]
Аудио 3: английский, AC3, 192 kbps, 2 ch, 48 kHz [оригинал]
Субтитры 1: русские (Кармен-видео)
Субтитры 2: русские (Дмитрий Пучков (Гоблин))
Субтитры 3: английские
Главы/чаптеры

Внешние файлы
Аудио: русский, AC3, 192 kbps, 2 ch, 48 kHz [закадровый многоголосый, Extrabit]
Аудио: русский, AC3, 192 kbps, 2 ch, 48 kHz [закадровый многоголосый, FDV]
Аудио: русский, AC3, 192 kbps, 2 ch, 48 kHz [закадровый многоголосый, Кармен-видео]
Аудио: русский, AC3, 192 kbps, 2 ch, 48 kHz [авторский, Сергей Визгунов]
Аудио: русский, AC3, 192 kbps, 2 ch, 48 kHz [авторский, Юрий Живов]
Аудио: русский, AC3, 192 kbps, 2 ch, 48 kHz [авторский, Пётр Карцев]
Аудио: русский, AC3, 192 kbps, 2 ch, 48 kHz [авторский, Владимир Яковлев (Самарский)]
Общее
Полное имя : D:\Video\Мертвец.1995.BDRip 720p\MVO Extrabit.ac3
Формат : AC-3
Формат/Информация : Audio Coding 3
Коммерческое название : Dolby Digital
Размер файла : 166 Мбайт
Продолжительность : 2 ч. 1 м.
Режим общего битрейта : Постоянный
Общий поток : 192 Кбит/сек

Аудио
Формат : AC-3
Формат/Информация : Audio Coding 3
Коммерческое название : Dolby Digital
Продолжительность : 2 ч. 1 м.
Вид битрейта : Постоянный
Битрейт : 192 Кбит/сек
Каналы : 2 канала
Channel layout : L R
Частота : 48,0 КГц
Частота кадров : 31,250 кадров/сек (1536 SPF)
Битовая глубина : 16 бит
Метод сжатия : С потерями
Размер потока : 166 Мбайт (100%)
ServiceKind/String : Complete Main

Общее
Полное имя : D:\Video\Мертвец.1995.BDRip 720p\MVO FDV.ac3
Формат : AC-3
Формат/Информация : Audio Coding 3
Коммерческое название : Dolby Digital
Размер файла : 166 Мбайт
Продолжительность : 2 ч. 1 м.
Режим общего битрейта : Постоянный
Общий поток : 192 Кбит/сек

Аудио
Формат : AC-3
Формат/Информация : Audio Coding 3
Коммерческое название : Dolby Digital
Продолжительность : 2 ч. 1 м.
Вид битрейта : Постоянный
Битрейт : 192 Кбит/сек
Каналы : 2 канала
Channel layout : L R
Частота : 48,0 КГц
Частота кадров : 31,250 кадров/сек (1536 SPF)
Битовая глубина : 16 бит
Метод сжатия : С потерями
Размер потока : 166 Мбайт (100%)
ServiceKind/String : Complete Main

Общее
Полное имя : D:\Video\Мертвец.1995.BDRip 720p\MVO R5, Кармен-Видео.ac3
Формат : AC-3
Формат/Информация : Audio Coding 3
Коммерческое название : Dolby Digital
Размер файла : 166 Мбайт
Продолжительность : 2 ч. 1 м.
Режим общего битрейта : Постоянный
Общий поток : 192 Кбит/сек

Аудио
Формат : AC-3
Формат/Информация : Audio Coding 3
Коммерческое название : Dolby Digital
Продолжительность : 2 ч. 1 м.
Вид битрейта : Постоянный
Битрейт : 192 Кбит/сек
Каналы : 2 канала
Channel layout : L R
Частота : 48,0 КГц
Частота кадров : 31,250 кадров/сек (1536 SPF)
Битовая глубина : 16 бит
Метод сжатия : С потерями
Размер потока : 166 Мбайт (100%)
ServiceKind/String : Complete Main

Общее
Полное имя : D:\Video\Мертвец.1995.BDRip 720p\Визгунов.ac3
Формат : AC-3
Формат/Информация : Audio Coding 3
Коммерческое название : Dolby Digital
Размер файла : 166 Мбайт
Продолжительность : 2 ч. 1 м.
Режим общего битрейта : Постоянный
Общий поток : 192 Кбит/сек

Аудио
Формат : AC-3
Формат/Информация : Audio Coding 3
Коммерческое название : Dolby Digital
Продолжительность : 2 ч. 1 м.
Вид битрейта : Постоянный
Битрейт : 192 Кбит/сек
Каналы : 2 канала
Channel layout : L R
Частота : 48,0 КГц
Частота кадров : 31,250 кадров/сек (1536 SPF)
Битовая глубина : 16 бит
Метод сжатия : С потерями
Размер потока : 166 Мбайт (100%)
ServiceKind/String : Complete Main

Общее
Полное имя : D:\Video\Мертвец.1995.BDRip 720p\Живов.ac3
Формат : AC-3
Формат/Информация : Audio Coding 3
Коммерческое название : Dolby Digital
Размер файла : 166 Мбайт
Продолжительность : 2 ч. 1 м.
Режим общего битрейта : Постоянный
Общий поток : 192 Кбит/сек

Аудио
Формат : AC-3
Формат/Информация : Audio Coding 3
Коммерческое название : Dolby Digital
Продолжительность : 2 ч. 1 м.
Вид битрейта : Постоянный
Битрейт : 192 Кбит/сек
Каналы : 2 канала
Channel layout : L R
Частота : 48,0 КГц
Частота кадров : 31,250 кадров/сек (1536 SPF)
Битовая глубина : 16 бит
Метод сжатия : С потерями
Размер потока : 166 Мбайт (100%)
ServiceKind/String : Complete Main

Общее
Полное имя : D:\Video\Мертвец.1995.BDRip 720p\Карцев.ac3
Формат : AC-3
Формат/Информация : Audio Coding 3
Коммерческое название : Dolby Digital
Размер файла : 166 Мбайт
Продолжительность : 2 ч. 1 м.
Режим общего битрейта : Постоянный
Общий поток : 192 Кбит/сек

Аудио
Формат : AC-3
Формат/Информация : Audio Coding 3
Коммерческое название : Dolby Digital
Продолжительность : 2 ч. 1 м.
Вид битрейта : Постоянный
Битрейт : 192 Кбит/сек
Каналы : 2 канала
Channel layout : L R
Частота : 48,0 КГц
Частота кадров : 31,250 кадров/сек (1536 SPF)
Битовая глубина : 16 бит
Метод сжатия : С потерями
Размер потока : 166 Мбайт (100%)
ServiceKind/String : Complete Main

Общее
Уникальный идентификатор : 232452945165530501369965560364930886714 (0xAEE0CF0BE9C2DF8AAD14D651512AEC3A)
Полное имя : D:\Video\Мертвец.1995.BDRip 720p\Мертвец.1995.BDRip 720p by msltel.mkv
Формат : Matroska
Версия формата : Version 4
Размер файла : 6,46 Гбайт
Продолжительность : 2 ч. 1 м.
Общий поток : 7642 Кбит/сек
Название фильма : Rip by msltel
Дата кодирования : UTC 2019-01-31 07:55:55
Программа кодирования : mkvmerge v8.2.0 ('World of Adventure') 64bit
Библиотека кодирования : libebml v1.3.1 + libmatroska v1.4.2

Видео
Идентификатор : 1
Формат : AVC
Формат/Информация : Advanced Video Codec
Профиль формата : High@L4.1
Настройки формата : CABAC / 9 Ref Frames
Параметр CABAC формата : Да
Параметр RefFrames формата : 9 кадров
Идентификатор кодека : V_MPEG4/ISO/AVC
Продолжительность : 2 ч. 1 м.
Битрейт : 7064 Кбит/сек
Ширина : 1280 пикселей
Высота : 720 пикселей
Соотношение сторон : 16:9
Режим частоты кадров : Постоянный
Частота кадров : 23,976 (24000/1001) кадра/сек
Цветовое пространство : YUV
Субдискретизация насыщенности : 4:2:0
Битовая глубина : 8 бит
Тип развёртки : Прогрессивная
Бит/(Пиксели*Кадры) : 0.320
Размер потока : 5,98 Гбайт (92%)
Библиотека кодирования : x264 core 157 r2935 545de2f
Настройки программы : cabac=1 / ref=9 / deblock=1:-2:-2 / analyse=0x3:0x113 / me=umh / subme=11 / psy=1 / psy_rd=1.00:0.15 / mixed_ref=1 / me_range=32 / chroma_me=1 / trellis=2 / 8x8dct=1 / cqm=0 / deadzone=21,11 / fast_pskip=0 / chroma_qp_offset=-3 / threads=6 / lookahead_threads=1 / sliced_threads=0 / nr=0 / decimate=1 / interlaced=0 / bluray_compat=0 / constrained_intra=0 / bframes=12 / b_pyramid=2 / b_adapt=2 / b_bias=0 / direct=1 / weightb=1 / open_gop=0 / weightp=2 / keyint=230 / keyint_min=23 / scenecut=40 / intra_refresh=0 / rc_lookahead=40 / rc=crf / mbtree=0 / crf=20.0 / qcomp=0.60 / qpmin=0 / qpmax=69 / qpstep=4 / vbv_maxrate=62500 / vbv_bufsize=78125 / crf_max=0.0 / nal_hrd=none / filler=0 / ip_ratio=1.40 / pb_ratio=1.30 / aq=1:1.00
Язык : English
Default : Да
Forced : Нет

Аудио #1
Идентификатор : 2
Формат : AC-3
Формат/Информация : Audio Coding 3
Коммерческое название : Dolby Digital
Идентификатор кодека : A_AC3
Продолжительность : 2 ч. 1 м.
Вид битрейта : Постоянный
Битрейт : 192 Кбит/сек
Каналы : 2 канала
Channel layout : L R
Частота : 48,0 КГц
Частота кадров : 31,250 кадров/сек (1536 SPF)
Битовая глубина : 16 бит
Метод сжатия : С потерями
Размер потока : 166 Мбайт (3%)
Заголовок : MVO OPT Selena International
Язык : Russian
ServiceKind/String : Complete Main
Default : Да
Forced : Нет

Аудио #2
Идентификатор : 3
Формат : AC-3
Формат/Информация : Audio Coding 3
Коммерческое название : Dolby Digital
Идентификатор кодека : A_AC3
Продолжительность : 2 ч. 1 м.
Вид битрейта : Постоянный
Битрейт : 192 Кбит/сек
Каналы : 2 канала
Channel layout : L R
Частота : 48,0 КГц
Частота кадров : 31,250 кадров/сек (1536 SPF)
Битовая глубина : 16 бит
Метод сжатия : С потерями
Размер потока : 166 Мбайт (3%)
Заголовок : Дмитрий Пучков (Гоблин)
Язык : Russian
ServiceKind/String : Complete Main
Default : Нет
Forced : Нет

Аудио #3
Идентификатор : 4
Формат : AC-3
Формат/Информация : Audio Coding 3
Коммерческое название : Dolby Digital
Идентификатор кодека : A_AC3
Продолжительность : 2 ч. 1 м.
Вид битрейта : Постоянный
Битрейт : 192 Кбит/сек
Каналы : 2 канала
Channel layout : L R
Частота : 48,0 КГц
Частота кадров : 31,250 кадров/сек (1536 SPF)
Битовая глубина : 16 бит
Метод сжатия : С потерями
Размер потока : 166 Мбайт (3%)
Заголовок : original
Язык : English
ServiceKind/String : Complete Main
Default : Нет
Forced : Нет

Текст #1
Идентификатор : 5
Формат : UTF-8
Идентификатор кодека : S_TEXT/UTF8
Идентификатор кодека/Информация : UTF-8 Plain Text
Продолжительность : 1 ч. 56 м.
Битрейт : 45 бит/сек
ElementCount : 723
Размер потока : 39,0 Кбайт (0%)
Заголовок : русские Кармен
Язык : Russian
Default : Нет
Forced : Нет

Текст #2
Идентификатор : 6
Формат : UTF-8
Идентификатор кодека : S_TEXT/UTF8
Идентификатор кодека/Информация : UTF-8 Plain Text
Продолжительность : 1 ч. 54 м.
Битрейт : 49 бит/сек
ElementCount : 791
Размер потока : 41,8 Кбайт (0%)
Заголовок : русские Гоблин
Язык : Russian
Default : Нет
Forced : Нет

Текст #3
Идентификатор : 7
Формат : UTF-8
Идентификатор кодека : S_TEXT/UTF8
Идентификатор кодека/Информация : UTF-8 Plain Text
Продолжительность : 1 ч. 49 м.
Битрейт : 30 бит/сек
ElementCount : 751
Размер потока : 24,9 Кбайт (0%)
Заголовок : английские
Язык : English
Default : Нет
Forced : Нет

Меню
00:00:00.000 : :Chapter 1
00:08:28.174 : :Chapter 2
00:13:11.749 : :Chapter 3
00:23:50.387 : :Chapter 4
00:29:36.733 : :Chapter 5
00:39:52.806 : :Chapter 6
00:48:10.094 : :Chapter 7
00:55:39.836 : :Chapter 8
01:03:06.407 : :Chapter 9
01:12:56.371 : :Chapter 10
01:19:46.781 : :Chapter 11
01:29:28.362 : :Chapter 12
01:39:02.561 : :Chapter 13
01:45:05.132 : :Chapter 14
01:52:03.675 : :Chapter 15

Общее
Полное имя : D:\Video\Мертвец.1995.BDRip 720p\Яковлев (Самарский).ac3
Формат : AC-3
Формат/Информация : Audio Coding 3
Коммерческое название : Dolby Digital
Размер файла : 166 Мбайт
Продолжительность : 2 ч. 1 м.
Режим общего битрейта : Постоянный
Общий поток : 192 Кбит/сек

Аудио
Формат : AC-3
Формат/Информация : Audio Coding 3
Коммерческое название : Dolby Digital
Продолжительность : 2 ч. 1 м.
Вид битрейта : Постоянный
Битрейт : 192 Кбит/сек
Каналы : 2 канала
Channel layout : L R
Частота : 48,0 КГц
Частота кадров : 31,250 кадров/сек (1536 SPF)
Битовая глубина : 16 бит
Метод сжатия : С потерями
Размер потока : 166 Мбайт (100%)
ServiceKind/String : Complete Main
pb.wtf



Скачать Мертвец через торрент https://c.radikal.ru/c29/1901/4f/c0c7d90e600c.jpg Скачать фильм Мертвец через торрент бесплантно в хорошем качестве О фильме: После смерти родителей молодой счетовод Уильям Блэйк в надежде на работу приезжает на Дикий Запад, где, по злой воле случая, за ... 8.6 10 7
Info! Золотая раздача, скачанное не засчитывается.
Торрент: Зарегистрирован [2019-01-31 09:54] · скачан: 92 раз
Статус: √ проверено
Размер: 7.6 GB
Как cкачать? Как скачать Мертвец через торрент | qTorrent

% Раздел Тема Автор DL S | L
Фильмы [HD 720p, 1080p] (Хороший звук DUB, MVO) [ 24.47 GB ] Мертвец / Dead Man [1995 BDRip 1080p by msltel] 4 x MVO 5 x AVO msltel Скачать
1 | 0

28-11-2019 20:33  

Отключить всю рекламу на сайте

31-01-2019 10:41 Мертвец Скачать торрент  

не понял данный фильм. первая попытка создания что то типа города грехов..но что то не зашлоpb.wtf



31-01-2019 11:19 Мертвец Скачать торрент  

grinpis66, лучше не смотри подобные фильмы, это явно не для тебя...pb.wtf



31-01-2019 12:16 Мертвец Скачать торрент  

ШЕДЕВРpb.wtf



31-01-2019 12:30 Мертвец Скачать торрент  

Думал Цой в шляпе))pb.wtf



31-01-2019 13:12 Мертвец Скачать торрент  

фильм не для средних умовpb.wtf



01-02-2019 08:41 Мертвец Скачать торрент  

реально лучшая роль Деппа.pb.wtf



01-02-2019 16:35 Мертвец Скачать торрент  

Если не ошибаюсь там музыка угарная, исполняется на гитаре, давно искал его но не знал как называется))))pb.wtf



02-02-2019 15:10 Мертвец Скачать торрент  



pb.wtf



    Дорогой пользователь! Огромная просьба, поблагодарите релизера, оцените раздачу и оставьте свои комментарий, если Вы скачали Мертвец через торрент бесплатно! Внесите свою лепту в развитие PiratBit!
    Комментировать посты могут только пользователи прошедшие не сложную регистрацию
    Показать сообщения:    

    Мертвец через торрент
    Скачать бесплатно Мертвец
    Мертвец скачать торрент
    Мертвец смотреть онлайн
    Cкачать фильм Мертвец бесплатно
    Мертвец скачать торрент в хорошем качестве
    Мертвец смотреть онлайн бесплатно в хорошем качестве


    Вы не можете начинать темы
    Вы не можете отвечать на сообщения
    Вы не можете редактировать свои сообщения
    Вы не можете удалять свои сообщения
    Вы не можете голосовать в опросах
    Вы не можете прикреплять файлы к сообщениям
    Вы можете скачивать файлы