Ссылка на приватное зеркало нашего сайта всего за 1$. Внимание количество ограничено!!!

2 сезон

iTunes

1 сезон

1

2 сезон

2 сезон

iTunes

1 сезон

RePack

30

Ultimate

ВАЖНО

ИГРА 18+

pack

RePack

MK11
pack

Забери бонус

RePack

jed

!!Акция!!

Alien_Rage

RePack

fifa19

RePack

Assassins Creed: Odyssey

RePack

NEED FOR SPEED™ PAYBACK

4 сезон

9 сезон

Бесстыжие 9 сезон

Все сериалы

все сериалы на PB.wtf

RePack

FAR CRY 5
  

Убийства по алфавиту / The ABC Murders / Сезон: 1 / Серии: 1-3 из 3 (Алекс Габасси) [2018, триллер, драма, криминал, детектив, WEB-DLRip] MVO [AlexFilm] pb.wtf

Убийства по алфавиту через торрент pb.wtf

Размер: 1.97 GB | Добавлен: 1 год 10 мес. назад | Торрент скачан:37 раз
Скачать  

31-01-2019 10:36 Убийства по алфавиту Скачать торрент  

Убийства по алфавиту / The ABC Murders
1 сезон, 1-3 серии из 3
Год выпуска: 2018
Страна: США
Жанр: триллер, драма, криминал, детектив
Продолжительность: ~01:00:00
Перевод: профессиональное многоголосое закадровое | AlexFilm
Субтитры: нет

Режиссер: Алекс Габасси

В ролях:

Джон Малкович, Имон Фэррен, Майкл Шэйффер, Руперт Гринт, Conrad McCroddan, Фрейя Мавор, Ширли Хендерсон, Аня Чалотра, Эндрю Бакан, Тара Фитцджеральд и др.

Описание:

"Убийства по алфавиту" - экранизация одного из самых знаменитых романов Агаты Кристи, созданная телеканалом BBC One. Это не первый подобный проект британцев: в 2015 году они перенесли на малые экраны легендарное произведение Королевы детектива "Десять негритят". Мини-сериал "И никого не стало" получил высокую оценку критиков и покорил миллионы зрителей. К работе над "Убийствами по алфавиту" привлекли номинированную на премию BAFTA сценаристку Сару Фелпс, которая работала над проектом "И никого не стало" и уже считается экспертом по творчеству Кристи, и режиссера Алекса Габасси, успевшего зарекомендовать себя в детективном жанре ("Хроники Франкенштейна"). Трехсерийный мини-сериал "Убийства по алфавиту" может похвастаться отменным актерским составом. Двукратный номинант на премию "Оскар" Джон Малкович украсил классический образ Эркюля Пуаро собственным прочтением и выгодно выделил его среди работ Альфреда Молины, Дэвида Суше и Питера Устинова. Звезда "Гарри Поттера" Руперт Гринт присоединился к Малковичу на стороне сил правопорядка в роли инспектора Крама. Также в проекте приняли участие Тара Фитцджеральд ("Игра престолов"), Эндрю Бакан ("Все деньги мира"), Ширли Хендерсон, известность которой также принесли фильмы о Гарри Поттере, Джек Фартинг ("Демоны да Винчи") и другие талантливые актеры.

Релиз:

Перевод: Алексей Ярополов
Монтаж и сведение звука: Михаил Шорыгин
Роли озвучивали:

Татьяна Манетина
Екатерина Муравицкая
Владимир Курдов
Алексей Никитин
Кирилл Патрино
Михаил Федосеев

Сэмпл: http://sendfile.su/1470136



Качество: WEB-DLRip
Формат: AVI

Видео: 704x352 25 fps, XviD ~1400 kbps avg, 0.222 bit/pixel
Аудио Rus: 48 kHz, MPEG Layer 3, 2 ch, ~128.00 kbps avg
Аудио Eng: 48 kHz, MPEG Layer 3, 2 ch, ~128.00 kbps avg


Реклама: аудио (два раза, в начале 10 и в конце 10 сек.)
" rel="gallery" target="_blank" class="postLink fancybox fancybox-media">
скриншот  скриншот  скриншот  скриншот  
Формат : AVI
Формат/Информация : Audio Video Interleave
Размер файла : 659 Мбайт
Продолжительность : 56 м. 0 с.
Общий поток : 1645 Кбит/сек
Название фильма : The ABC Murders 1x01 @ AlexFilm
Программа кодирования : VirtualDubMod 1.5.10.2 (build 2540/release)
Библиотека кодирования : VirtualDubMod build 2540/release

Видео
Идентификатор : 0
Формат : MPEG-4 Visual
Профиль формата : Advanced Simple@L5
Параметр BVOP формата : Нет
Параметр QPel формата : Нет
Параметр GMC формата : Без точки перехода
Параметр матрицы формата : Default (MPEG)
Идентификатор кодека : XVID
Идентификатор кодека/Подсказка : XviD
Продолжительность : 56 м. 0 с.
Битрейт : 1374 Кбит/сек
Ширина : 704 пикселя
Высота : 352 пикселя
Соотношение сторон : 2,000
Частота кадров : 25,000 кадров/сек
Цветовое пространство : YUV
Субдискретизация насыщенности : 4:2:0
Битовая глубина : 8 бит
Тип развёртки : Прогрессивная
Метод сжатия : С потерями
Бит/(Пиксели*Кадры) : 0.222
Размер потока : 551 Мбайт (84%)
Библиотека кодирования : XviD 67

Аудио #1
Идентификатор : 1
Формат : MPEG Audio
Версия формата : Version 1
Профиль формата : Layer 3
Режим : Joint stereo
Идентификатор кодека : 55
Идентификатор кодека/Подсказка : MP3
Продолжительность : 56 м. 0 с.
Вид битрейта : Постоянный
Битрейт : 128 Кбит/сек
Каналы : 2 канала
Частота : 48,0 КГц
Метод сжатия : С потерями
Размер потока : 51,3 Мбайт (8%)
Выравнивание : Соединение по промежуткам
Продолжительность промежутка : 40 мс. (1,00 видеокадр)
Время предзагрузки промежутка : 504 мс.
Заголовок : Russian (AlexFilm)
Библиотека кодирования : LAME3.99.5ЄЄЄЄЄЄЄЄЄЄ

Аудио #2
Идентификатор : 2
Формат : MPEG Audio
Версия формата : Version 1
Профиль формата : Layer 3
Режим : Joint stereo
Расширение режима : MS Stereo
Идентификатор кодека : 55
Идентификатор кодека/Подсказка : MP3
Продолжительность : 56 м. 0 с.
Вид битрейта : Постоянный
Битрейт : 128 Кбит/сек
Каналы : 2 канала
Частота : 48,0 КГц
Метод сжатия : С потерями
Размер потока : 51,3 Мбайт (8%)
Выравнивание : Соединение по промежуткам
Продолжительность промежутка : 40 мс. (1,00 видеокадр)
Время предзагрузки промежутка : 504 мс.
Заголовок : English
Библиотека кодирования : LAME3.90.3ЄЄЄЄЄЄЄЄЄЄ
Внимание! Раздача ведётся путём добавления новых серий; при каждом добавлении создаётся новый торрент. Чтобы начать докачку новой серии, пользователям необходимо сделать следующее:
(1) остановить скачивание,
(2) удалить старый торрент у себя из клиента (старые серии удалять не надо),
(3) скачать новый торрент и запустить его у себя в клиенте вместо старого, при этом указать клиенту путь в старую папку куда и должно происходить скачивание новых серий.
Ваш клиент при этом должен произвести хеширование (проверку) старой папки (если не производит сам - помогите ему сделать это), и будет докачивать только те серии которых у вас ещё нет. Старые серии при этом не удаляются, а продолжают раздаваться!
Eсли вы уже удалили старые серии, то предотвратить повторную закачку старых серий можно, отжав галочку в соответствующих местах при запуске нового торрента. По возможности, желательно не удалять старые серии как можно дольше чтобы релизёр не столько продолжал раздавать старые серии, а смог сконцентрироваться на новых.
pb.wtf



Скачать Убийства по алфавиту через торрент https://i110.fastpic.ru/big/2019/0123/b6/5abf778f7199e2a87ef4a9451d84f9b6.jpg Скачать фильм Убийства по алфавиту через торрент бесплантно в хорошем качестве Описание: "Убийства по алфавиту" - экранизация одного из самых знаменитых романов Агаты Кристи, созданная телеканалом BBC One. Это не ... 10 10 1
Торрент: Зарегистрирован [2019-01-31 10:36] · скачан: 37 раз
Статус: √ проверено
Размер: 1.97 GB
Как cкачать? Как скачать Убийства по алфавиту через торрент | qTorrent

% Раздел Тема Автор DL S | L
Зарубежные сериалы [ 3.91 GB ] Убийства по алфавиту / The ABC Murders / Сезон: 1 / Серии: 1-3 из 3 [2018 WEB-DL 720p] MVO [AlexFilm] bober100 Скачать
1 | 0
Зарубежные сериалы [ 5.75 GB ] Убийства по алфавиту / The ABC Murders / Сезон: 1 / Серии 1-3 из 3 [2018 WEB-DL 1080p] [MVO] killermax2013 Скачать
1 | 0
Зарубежные сериалы [ 2.15 GB ] Убийства по алфавиту / The ABC Murders / Сезон: 1 / Серии: 1-3 из 3 [2018 WEBRip] MVO [NewStudio] bober100 Скачать
1 | 0
Зарубежные сериалы [ 5.44 GB ] Убийства по алфавиту / The ABC Murders / Сезон: 1 / Серии: 1-3 из 3 [2018 WEBRip 1080p] MVO [NewStudio] bober100 Скачать
1 | 0
Зарубежные сериалы [ 2.15 GB ] Убийства по алфавиту / The ABC Murders / Сезон: 1 / Серии 1-3 из 3 [2018 WEBRip] [MVO] killermax2013 Скачать
1 | 0
Зарубежные сериалы [ 2.4 GB ] Убийства по алфавиту / The ABC Murders / Сезон: 1 / Серии 1-3 из 3 [2018 HDTVRip 720p] [DVO] killermax2013 Скачать
1 | 0

28-11-2019 20:33  

Отключить всю рекламу на сайте

    Дорогой пользователь! Огромная просьба, поблагодарите релизера, оцените раздачу и оставьте свои комментарий, если Вы скачали Убийства по алфавиту через торрент бесплатно! Внесите свою лепту в развитие PiratBit!
    Комментировать посты могут только пользователи прошедшие не сложную регистрацию
    Показать сообщения:    

    Убийства по алфавиту через торрент
    Скачать бесплатно Убийства по алфавиту
    Убийства по алфавиту скачать торрент
    Убийства по алфавиту смотреть онлайн
    Cкачать фильм Убийства по алфавиту бесплатно
    Убийства по алфавиту скачать торрент в хорошем качестве
    Убийства по алфавиту смотреть онлайн бесплатно в хорошем качестве


    Вы не можете начинать темы
    Вы не можете отвечать на сообщения
    Вы не можете редактировать свои сообщения
    Вы не можете удалять свои сообщения
    Вы не можете голосовать в опросах
    Вы не можете прикреплять файлы к сообщениям
    Вы можете скачивать файлы