Ссылка на приватное зеркало всего за 1$. Внимание количество ограничено!!!

OK

1+1

iTunes

мы

OK

1

WEB-DLRip

Джокер

Пифагор

Ведьмак / The Witcher сериал

iTunes

ПШазам

ОК

Оно 2

iTunes

30
pack

Вам бонус

ВАЖНО

!!Акция!!

Alien_RageХит недели

RePack

Resident Evil 21

ИГРА 18+

pack

RePack

jed

RePack

fifa19

RePack

Assassins Creed: Odyssey

RePack

NEED FOR SPEED™ PAYBACK

4 сезон

9 сезон

Бесстыжие 9 сезон

Все сериалы

все сериалы на PB.wtf

RePack

FAR CRY 5
  

Безумцы / The Mad Ones (Ани Пандит) [2017, драма, комедия, WEB-DL 720p] MVO ["Синема УС"] pb.wtf

Безумцы через торрент pb.wtf

Размер: 3.64 GB | Добавлен: 11 мес. назад | Торрент скачан:13 раз
Скачать  

31-01-2019 11:31 Безумцы Скачать торрент  

Безумцы / The Mad OnesГод выпуска: 2017
Страна: США
Жанр: драма, комедия
Продолжительность: 01:40:11
Перевод: Любительский (многоголосый) | "Синема УС"
Субтитры: отсутствуют

Режиссер: Ани Пандит

rating

В ролях:

Антони Джои, Дэна ДеЛоренцо, Лаврентий Лопес, Майк Стейб, Майк Леффингуэлл, Дэвид Теюн, Келси Эбботт, Эмили Майя Миллс, Дженни Пирсон, Холли Празофф

Описание:

Трогательная комедия о дружбе, которая разрастается между тремя молодыми специалистами, пытающимися найти смысл жизни и своё призвание в эпоху цифровых технологий

Качество: WEB-DL 720p
Формат: MKV

Видео: h.264, 4 813 kb/s, 1280x720
Аудио#1: Русский, (AC3, 2 ch, 384 Кбит/с)
скриншот  скриншот  скриншот  

Общее
Уникальный идентификатор : 181949068529782967763106474890782301322 (0x88E21DAE78EEAF919AE6569165FFDC8A)
Полное имя : D:\The.Mad.Ones.2O17.P.WEB-DL.72Op_KOSHARA.mkv
Формат : Matroska
Версия формата : Version 2
Размер файла : 3,64 Гбайт
Продолжительность : 1 ч. 40 м.
Режим общего битрейта : Переменный
Общий поток : 5199 Кбит/сек
Дата кодирования : UTC 2019-01-30 14:37:52
Программа кодирования : mkvmerge v8.3.0 ('Over the Horizon') 64bit
Библиотека кодирования : libebml v1.3.1 + libmatroska v1.4.2

Видео
Идентификатор : 1
Формат : AVC
Формат/Информация : Advanced Video Codec
Профиль формата : High@L4.1
Параметр CABAC формата : Да
Параметр RefFrames формата : 4 кадра
Идентификатор кодека : V_MPEG4/ISO/AVC
Продолжительность : 1 ч. 40 м.
Вид битрейта : Переменный
Битрейт : 4812 Кбит/сек
Максимальный битрейт : 5500 Кбит/сек
Ширина : 1280 пикселей
Высота : 720 пикселей
Соотношение сторон : 16:9
Режим частоты кадров : Постоянный
Частота кадров : 23,976 (24000/1001) кадра/сек
Стандарт вещания : Component
Цветовое пространство : YUV
Субдискретизация насыщенности : 4:2:0
Битовая глубина : 8 бит
Тип развёртки : Прогрессивная
Бит/(Пиксели*Кадры) : 0.213
Размер потока : 3,30 Гбайт (91%)
Default : Да
Forced : Нет
Цветовой диапазон : Limited
Основные цвета : BT.709
Характеристики трансфера : BT.709
Коэффициенты матрицы : BT.709

Аудио
Идентификатор : 2
Формат : AC-3
Формат/Информация : Audio Coding 3
Расширение режима : CM (complete main)
Параметр Endianness формата : Big
Идентификатор кодека : A_AC3
Продолжительность : 1 ч. 40 м.
Вид битрейта : Постоянный
Битрейт : 384 Кбит/сек
Каналы : 2 канала
Расположение каналов : Front: L R
Частота : 48,0 КГц
Частота кадров : 31,250 кадров/сек (1536 spf)
Метод сжатия : С потерями
Размер потока : 275 Мбайт (7%)
Default : Да
Forced : Нет

pb.wtf



Скачать Безумцы через торрент https://d.radikal.ru/d01/1901/e3/dbc0b133b009.jpg Скачать фильм Безумцы через торрент бесплантно в хорошем качестве Описание: Трогательная комедия о дружбе, которая разрастается между тремя молодыми специалистами, пытающимися найти смысл жизни и своё ... 10 10 2
Торрент: Зарегистрирован [2019-01-31 11:31] · скачан: 13 раз
Статус: T временная
Размер: 3.64 GB
Как cкачать? Как скачать Безумцы через торрент | qTorrent

% Раздел Тема Автор DL S | L
T Фильмы (мультфильмы) cо спонсором показа (Новинки AVI/MKV) [ 1.37 GB ] Безумцы / The Mad Ones [2017 WEB-DLRip] MVO ["Синема УС"] bober100 Скачать
2 | 0

28-11-2019 20:33  

Отключить всю рекламу на сайте

    Дорогой пользователь! Огромная просьба, поблагодарите релизера, оцените раздачу и оставьте свои комментарий, если Вы скачали Безумцы через торрент бесплатно! Внесите свою лепту в развитие PiratBit!
    Комментировать посты могут только пользователи прошедшие не сложную регистрацию
    Показать сообщения:    

    Безумцы через торрент
    Скачать бесплатно Безумцы
    Безумцы скачать торрент
    Безумцы смотреть онлайн
    Cкачать фильм Безумцы бесплатно
    Безумцы скачать торрент в хорошем качестве
    Безумцы смотреть онлайн бесплатно в хорошем качестве


    Вы не можете начинать темы
    Вы не можете отвечать на сообщения
    Вы не можете редактировать свои сообщения
    Вы не можете удалять свои сообщения
    Вы не можете голосовать в опросах
    Вы не можете прикреплять файлы к сообщениям
    Вы можете скачивать файлы