Ссылка на приватное зеркало всего за 1$. Внимание количество ограничено!!!

OK

1+1

iTunes

мы

OK

1

WEB-DLRip

Джокер

Пифагор

Ведьмак / The Witcher сериал

iTunes

ПШазам

ОК

Оно 2

iTunes

30
pack

Вам бонус

ВАЖНО

!!Акция!!

Alien_RageХит недели

RePack

Resident Evil 21

ИГРА 18+

pack

RePack

jed

RePack

fifa19

RePack

Assassins Creed: Odyssey

RePack

NEED FOR SPEED™ PAYBACK

4 сезон

9 сезон

Бесстыжие 9 сезон

Все сериалы

все сериалы на PB.wtf

RePack

FAR CRY 5
  

Задний вид / Rearview (Аврил Э. Расселл, Орсон Нава) [2017, Триллер, WEB-DL 720p] MVO ["Синема УС"] pb.wtf

Задний вид через торрент pb.wtf

Размер: 3.16 GB | Добавлен: 11 мес. назад | Торрент скачан:36 раз
Скачать  

31-01-2019 17:12 Задний вид Скачать торрент  

Задний вид / Rearview Год выпуска: 2017
Страна: Великобритания
Жанр: Триллер
Продолжительность: 01:21:34
Перевод: Любительский (многоголосый) | "Синема УС"
Субтитры: отсутствуют

Режиссер: Аврил Э. Расселл, Орсон Нава

rating

В ролях:

Антония Томас, Джейми Сивес, Джей Симпсон, Джеймс Флойд, Пол Рэттрэй, Софи Оттли, Софи Беренис, Симон ДеСильва

Описание:

По пути в Лондон молодая девушка застревает на просёлочной дороге из-за поломки машины и попадает в поле зрения торговцев живым товаром, на счету которых уже несколько похищенных и убитых женщин.

Качество: WEB-DL 720p
Формат: MKV

Видео: h.264, 5159 Кбит/с, 1280x720
Аудио#1: Русский, (AC3, 2 ch, 384 Кбит/с)
скриншот  скриншот  скриншот  

Общее
Уникальный идентификатор : 206520451717594149453780059696008098945 (0x9B5E6467D1478143B8417D0EFD3D7481)
Полное имя : D:\Rearview.2017.P.WEB-DL.72Op.mkv
Формат : Matroska
Версия формата : Version 2
Размер файла : 3,16 Гбайт
Продолжительность : 1 ч. 21 м.
Режим общего битрейта : Переменный
Общий поток : 5545 Кбит/сек
Дата кодирования : UTC 2019-01-31 08:58:16
Программа кодирования : mkvmerge v8.3.0 ('Over the Horizon') 64bit
Библиотека кодирования : libebml v1.3.1 + libmatroska v1.4.2

Видео
Идентификатор : 1
Формат : AVC
Формат/Информация : Advanced Video Codec
Профиль формата : High@L4.1
Параметр CABAC формата : Да
Параметр RefFrames формата : 4 кадра
Идентификатор кодека : V_MPEG4/ISO/AVC
Продолжительность : 1 ч. 21 м.
Вид битрейта : Переменный
Битрейт : 5159 Кбит/сек
Максимальный битрейт : 6000 Кбит/сек
Ширина : 1280 пикселей
Высота : 720 пикселей
Соотношение сторон : 16:9
Режим частоты кадров : Постоянный
Частота кадров : 23,976 (24000/1001) кадра/сек
Стандарт вещания : Component
Цветовое пространство : YUV
Субдискретизация насыщенности : 4:2:0
Битовая глубина : 8 бит
Тип развёртки : Прогрессивная
Бит/(Пиксели*Кадры) : 0.229
Размер потока : 2,88 Гбайт (91%)
Default : Да
Forced : Нет
Цветовой диапазон : Limited
Основные цвета : BT.709
Характеристики трансфера : BT.709
Коэффициенты матрицы : BT.709

Аудио
Идентификатор : 2
Формат : AC-3
Формат/Информация : Audio Coding 3
Расширение режима : CM (complete main)
Параметр Endianness формата : Big
Идентификатор кодека : A_AC3
Продолжительность : 1 ч. 21 м.
Вид битрейта : Постоянный
Битрейт : 384 Кбит/сек
Каналы : 2 канала
Расположение каналов : Front: L R
Частота : 48,0 КГц
Частота кадров : 31,250 кадров/сек (1536 spf)
Метод сжатия : С потерями
Размер потока : 224 Мбайт (7%)
Default : Да
Forced : Нет

pb.wtf



Скачать Задний вид через торрент https://d.radikal.ru/d19/1901/dd/44a0ec4054a4.jpg Скачать фильм Задний вид через торрент бесплантно в хорошем качестве Описание: По пути в Лондон молодая девушка застревает на просёлочной дороге из-за поломки машины и попадает в поле зрения торговцев живым ... 10 10 2
Торрент: Зарегистрирован [2019-01-31 17:12] · скачан: 36 раз
Статус: T временная
Размер: 3.16 GB
Как cкачать? Как скачать Задний вид через торрент | qTorrent

% Раздел Тема Автор DL S | L
T Фильмы (мультфильмы) cо спонсором показа (Новинки AVI/MKV) [ 1.37 GB ] Задний вид / Rearview [2017 WEB-DLRip] MVO ["Синема УС"] bober100 Скачать
1 | 0

28-11-2019 20:33  

Отключить всю рекламу на сайте

31-01-2019 19:42 Задний вид Скачать торрент  

Хорошо что! Не задний проход)))pb.wtf



    Дорогой пользователь! Огромная просьба, поблагодарите релизера, оцените раздачу и оставьте свои комментарий, если Вы скачали Задний вид через торрент бесплатно! Внесите свою лепту в развитие PiratBit!
    Комментировать посты могут только пользователи прошедшие не сложную регистрацию
    Показать сообщения:    

    Задний вид через торрент
    Скачать бесплатно Задний вид
    Задний вид скачать торрент
    Задний вид смотреть онлайн
    Cкачать фильм Задний вид бесплатно
    Задний вид скачать торрент в хорошем качестве
    Задний вид смотреть онлайн бесплатно в хорошем качестве


    Вы не можете начинать темы
    Вы не можете отвечать на сообщения
    Вы не можете редактировать свои сообщения
    Вы не можете удалять свои сообщения
    Вы не можете голосовать в опросах
    Вы не можете прикреплять файлы к сообщениям
    Вы можете скачивать файлы