Ссылка на приватное зеркало всего за 1$. Внимание количество ограничено!!!

OK

1+1

iTunes

мы

OK

1

WEB-DLRip

Джокер

Пифагор

Ведьмак / The Witcher сериал

iTunes

ПШазам

ОК

Оно 2

iTunes

30
pack

Вам бонус

ВАЖНО

!!Акция!!

Alien_RageХит недели

RePack

Resident Evil 21

ИГРА 18+

pack

RePack

jed

RePack

fifa19

RePack

Assassins Creed: Odyssey

RePack

NEED FOR SPEED™ PAYBACK

4 сезон

9 сезон

Бесстыжие 9 сезон

Все сериалы

все сериалы на PB.wtf

RePack

FAR CRY 5
  

Габриэль Иглесиас: Одно шоу на всех / Gabriel «Fluffy» Iglesias: One Show Fits All (Мэнни Родригес) [2019, комедия, WEB-DL 720p] MVO ["Синема УС"] pb.wtf

Габриэль Иглесиас: Одно шоу на всех через торрент pb.wtf

Раздают: 1 [ 0 KB/s ]
Размер: 3.12 GB | Добавлен: 11 мес. назад | Торрент скачан:38 раз
Скачать  

31-01-2019 17:37 Габриэль Иглесиас: Одно шоу на всех Скачать торрент  

Габриэль Иглесиас: Одно шоу на всех / Gabriel «Fluffy» Iglesias: One Show Fits All Год выпуска: 2019
Страна: США
Жанр: комедия
Продолжительность: 01:31:41
Перевод: Любительский (многоголосый) | "Синема УС"
Субтитры: отсутствуют

Режиссер: Мэнни Родригес

rating

В ролях: Габриэль Иглесиас

Описание:

Выступления стендапера Габриэля «Пушистого» Иглесиаса, который рассказывает о своём сыне-подростке, встречах со Снуп Доггом и фанатичном фанате, который не даёт ему прохода.

Качество: WEB-DL 720p
Формат: MKV

Видео: h.264, 4482 Кбит/с, 1280x720
Аудио#1: Русский, (AC3, 2 ch, 384 Кбит/с)
скриншот  скриншот  скриншот  

Общее
Уникальный идентификатор : 202695271403307260681828760246926825711 (0x987DB074881DE4B3A9B60085288DD8EF)
Полное имя : D:\Gabriel.Fluffy.Iglesias.One.Show.Fits.All.2019.P.WEB-DL.72Op_KOSHARA.mkv
Формат : Matroska
Версия формата : Version 2
Размер файла : 3,12 Гбайт
Продолжительность : 1 ч. 31 м.
Режим общего битрейта : Переменный
Общий поток : 4868 Кбит/сек
Дата кодирования : UTC 2019-01-31 09:22:48
Программа кодирования : mkvmerge v8.3.0 ('Over the Horizon') 64bit
Библиотека кодирования : libebml v1.3.1 + libmatroska v1.4.2

Видео
Идентификатор : 1
Формат : AVC
Формат/Информация : Advanced Video Codec
Профиль формата : High@L4.1
Параметр CABAC формата : Да
Параметр RefFrames формата : 4 кадра
Идентификатор кодека : V_MPEG4/ISO/AVC
Продолжительность : 1 ч. 31 м.
Вид битрейта : Переменный
Битрейт : 4482 Кбит/сек
Максимальный битрейт : 5000 Кбит/сек
Ширина : 1280 пикселей
Высота : 720 пикселей
Соотношение сторон : 16:9
Режим частоты кадров : Постоянный
Частота кадров : 23,976 (24000/1001) кадра/сек
Стандарт вещания : Component
Цветовое пространство : YUV
Субдискретизация насыщенности : 4:2:0
Битовая глубина : 8 бит
Тип развёртки : Прогрессивная
Бит/(Пиксели*Кадры) : 0.199
Размер потока : 2,81 Гбайт (90%)
Default : Да
Forced : Нет
Цветовой диапазон : Limited
Основные цвета : BT.709
Характеристики трансфера : BT.709
Коэффициенты матрицы : BT.709

Аудио
Идентификатор : 2
Формат : AC-3
Формат/Информация : Audio Coding 3
Расширение режима : CM (complete main)
Параметр Endianness формата : Big
Идентификатор кодека : A_AC3
Продолжительность : 1 ч. 31 м.
Вид битрейта : Постоянный
Битрейт : 384 Кбит/сек
Каналы : 2 канала
Расположение каналов : Front: L R
Частота : 48,0 КГц
Частота кадров : 31,250 кадров/сек (1536 spf)
Метод сжатия : С потерями
Размер потока : 252 Мбайт (8%)
Default : Да
Forced : Нет

pb.wtf



Скачать Габриэль Иглесиас: Одно шоу на всех через торрент https://c.radikal.ru/c02/1901/ff/4601871d7cb9.jpg Скачать фильм Габриэль Иглесиас: Одно шоу на всех через торрент бесплантно в хорошем качестве Описание: Выступления стендапера Габриэля «Пушистого» Иглесиаса, который рассказывает о своём сыне-подростке, встречах со Снуп Доггом и ... 10 10 3
Торрент: Зарегистрирован [2019-01-31 17:37] · скачан: 38 раз
Статус: T временная
Размер: 3.12 GB
Как cкачать? Как скачать Габриэль Иглесиас: Одно шоу на всех через торрент | qTorrent

% Раздел Тема Автор DL S | L
T Фильмы (мультфильмы) cо спонсором показа (Новинки AVI/MKV) [ 1.37 GB ] Габриэль Иглесиас: Одно шоу на всех / Gabriel «Fluffy» Iglesias: One Show Fits All [2019 WEB-DLRip] MVO ["Синема УС"] bober100 Скачать
1 | 0

28-11-2019 20:33  

Отключить всю рекламу на сайте

    Дорогой пользователь! Огромная просьба, поблагодарите релизера, оцените раздачу и оставьте свои комментарий, если Вы скачали Габриэль Иглесиас: Одно шоу на всех через торрент бесплатно! Внесите свою лепту в развитие PiratBit!
    Комментировать посты могут только пользователи прошедшие не сложную регистрацию
    Показать сообщения:    

    Габриэль Иглесиас: Одно шоу на всех через торрент
    Скачать бесплатно Габриэль Иглесиас: Одно шоу на всех
    Габриэль Иглесиас: Одно шоу на всех скачать торрент
    Габриэль Иглесиас: Одно шоу на всех смотреть онлайн
    Cкачать фильм Габриэль Иглесиас: Одно шоу на всех бесплатно
    Габриэль Иглесиас: Одно шоу на всех скачать торрент в хорошем качестве
    Габриэль Иглесиас: Одно шоу на всех смотреть онлайн бесплатно в хорошем качестве


    Вы не можете начинать темы
    Вы не можете отвечать на сообщения
    Вы не можете редактировать свои сообщения
    Вы не можете удалять свои сообщения
    Вы не можете голосовать в опросах
    Вы не можете прикреплять файлы к сообщениям
    Вы можете скачивать файлы