Ссылка на приватное зеркало всего за 1$. Внимание количество ограничено!!!

iTunes

iTunes

iTunes

1

iTunes

iTunes

iTunes

iTunes

iTunes

30
pack

$ от Little Big

ВАЖНО

!!Акция!!

Alien_RageХит недели

RePack

Resident Evil 21

ИГРА 18+

pack

RePack

jed

!!Акция!!

Alien_Rage

RePack

fifa19

RePack

Assassins Creed: Odyssey

RePack

NEED FOR SPEED™ PAYBACK

4 сезон

9 сезон

Бесстыжие 9 сезон

Все сериалы

все сериалы на PB.wtf

RePack

FAR CRY 5
  

Вдовы / Widows (Стив МакКуин) [2018, триллер, драма, мелодрама, криминал, BD Remux 1080p] DUB [iTunes] pb.wtf

Вдовы через торрент pb.wtf

Размер: 28.87 GB | Добавлен: 1 год 5 мес. назад | Торрент скачан:63 раза
Скачать  

31-01-2019 19:46 Вдовы Скачать торрент  

Вдовы / Widows
Год выхода: 2018
Выпущено: Великобритания, США
Жанр: триллер, драма, мелодрама, криминал,
Продолжительность: 02:09:34
Перевод: Дублированный | iTunes
Субтитры: Русские (Forced, full), английские

Режиссер: Стив МакКуин

rating

В ролях:

Виола Дэвис, Лиам Нисон, Джон Бернтал, Мануэль Рульфо, Коберн Госс, Мишель Родригес, Алехандро Вердин, Бейли Рюз Уолтерс, Элизабет Дебики, Кэрри Кун

Описание:

История о жёнах грабителей, погибших при неудачном налёте. Новоиспечённые вдовы берутся сами закончить начатое, разобраться с полицией и конкурентами, а главное — выяснить, кто же подставил их мужей.

Качество: BD Remux 1080p
Формат: MKV

Видео: MPEG-4 AVC, 1920x1080, 26.8 Mbit/s, 23.976 fps
Аудио#1: 48 kHz, AC3, 5.1, 384 Kbps | iTunes | RUS |
Аудио#2: 48 kHz, DTS-HD MA, 7.1, 4732 Kbps | Оригинал | ENG |
скриншот  скриншот  скриншот  скриншот  скриншот  

General
Unique ID : 72560200937048278247782242169751085988 (0x3696961CB51E5E13A02F9E2F7B9423A4)
Complete name : D:Video111Widows.2018.BDREMUX.1080p.seleZen.mkv
Format : Matroska
Format version : Version 4
File size : 28.9 GiB
Duration : 2 h 9 min
Overall bit rate mode : Variable
Overall bit rate : 31.9 Mb/s
Movie name : Widows 2018 from селезень
Encoded date : UTC 2019-01-31 19:36:55
Writing application : mkvmerge v29.0.0 ('Like It Or Not') 64-bit
Writing library : libebml v1.3.6 + libmatroska v1.4.9

Video
ID : 1
Format : AVC
Format/Info : Advanced Video Codec
Format profile : High@L4.1
Format settings : CABAC / 4 Ref Frames
Format settings, CABAC : Yes
Format settings, ReFrames : 4 frames
Codec ID : V_MPEG4/ISO/AVC
Duration : 2 h 9 min
Bit rate mode : Variable
Bit rate : 26.8 Mb/s
Maximum bit rate : 33.0 Mb/s
Width : 1 920 pixels
Height : 1 080 pixels
Display aspect ratio : 16:9
Frame rate mode : Constant
Frame rate : 23.976 (24000/1001) FPS
Color space : YUV
Chroma subsampling : 4:2:0
Bit depth : 8 bits
Scan type : Progressive
Bits/(Pixel*Frame) : 0.539
Stream size : 24.2 GiB (84%)
Language : English
Default : Yes
Forced : No

Audio #1
ID : 2
Format : AC-3
Format/Info : Audio Coding 3
Commercial name : Dolby Digital
Codec ID : A_AC3
Duration : 2 h 9 min
Bit rate mode : Constant
Bit rate : 384 kb/s
Channel(s) : 6 channels
Channel layout : L R C LFE Ls Rs
Sampling rate : 48.0 kHz
Frame rate : 31.250 FPS (1536 SPF)
Bit depth : 16 bits
Compression mode : Lossy
Stream size : 356 MiB (1%)
Title : Dub (iTunes)
Language : Russian
Service kind : Complete Main
Default : Yes
Forced : Yes

Audio #2
ID : 3
Format : DTS XLL
Format/Info : Digital Theater Systems
Commercial name : DTS-HD Master Audio
Codec ID : A_DTS
Duration : 2 h 9 min
Bit rate mode : Variable
Bit rate : 4 732 kb/s
Channel(s) : 8 channels
Channel layout : C L R LFE Lb Rb Lss Rss
Sampling rate : 48.0 kHz
Frame rate : 93.750 FPS (512 SPF)
Bit depth : 24 bits
Compression mode : Lossless
Stream size : 4.28 GiB (15%)
Title : Original
Language : English
Default : No
Forced : No

Text #1
ID : 4
Format : UTF-8
Codec ID : S_TEXT/UTF8
Codec ID/Info : UTF-8 Plain Text
Duration : 2 h 4 min
Bit rate : 0 b/s
Count of elements : 12
Stream size : 546 Bytes (0%)
Title : Forced
Language : Russian
Default : Yes
Forced : Yes

Text #2
ID : 5
Format : UTF-8
Codec ID : S_TEXT/UTF8
Codec ID/Info : UTF-8 Plain Text
Duration : 2 h 8 min
Bit rate : 92 b/s
Count of elements : 1518
Stream size : 86.7 KiB (0%)
Title : Full
Language : Russian
Default : No
Forced : No

Text #3
ID : 6
Format : UTF-8
Codec ID : S_TEXT/UTF8
Codec ID/Info : UTF-8 Plain Text
Duration : 2 h 5 min
Bit rate : 63 b/s
Count of elements : 1895
Stream size : 58.7 KiB (0%)
Title : Full
Language : English
Default : No
Forced : No

Text #4
ID : 7
Format : UTF-8
Codec ID : S_TEXT/UTF8
Codec ID/Info : UTF-8 Plain Text
Duration : 2 h 5 min
Bit rate : 71 b/s
Count of elements : 2115
Stream size : 65.8 KiB (0%)
Title : SDH
Language : English
Default : No
Forced : No

Menu
00:00:00.000 : en:Chapter 01
00:03:41.388 : en:Chapter 02
00:09:00.415 : en:Chapter 03
00:14:14.604 : en:Chapter 04
00:21:43.010 : en:Chapter 05
00:28:14.401 : en:Chapter 06
00:36:07.082 : en:Chapter 07
00:41:01.751 : en:Chapter 08
00:45:58.673 : en:Chapter 09
00:53:18.070 : en:Chapter 10
00:58:11.321 : en:Chapter 11
01:03:51.703 : en:Chapter 12
01:09:56.776 : en:Chapter 13
01:12:53.786 : en:Chapter 14
01:17:21.846 : en:Chapter 15
01:26:19.674 : en:Chapter 16
01:33:29.312 : en:Chapter 17
01:35:53.373 : en:Chapter 18
01:39:10.486 : en:Chapter 19
01:42:20.092 : en:Chapter 20
01:46:12.408 : en:Chapter 21
01:53:14.121 : en:Chapter 22
01:58:18.675 : en:Chapter 23
02:03:48.671 : en:Chapter 24

pb.wtf



Скачать Вдовы через торрент https://d.radikal.ru/d08/1901/d2/80133c65af77.jpg Скачать фильм Вдовы через торрент бесплантно в хорошем качестве Описание:История о жёнах грабителей, погибших при неудачном налёте. Новоиспечённые вдовы берутся сами закончить начатое, разобраться с ... 10 10 7
Торрент: Зарегистрирован [2019-01-31 19:46] · скачан: 63 раз
Статус: √ проверено
Размер: 28.87 GB
Как cкачать? Как скачать Вдовы через торрент | qTorrent

% Раздел Тема Автор DL S | L
Фильмы 2018 [DVDrip, WEB-DLRip, HDrip] (DUB, MVO) [ 1.46 GB ] Вдовы / Widows [2018 BDRip] - [] Twi7ter Скачать
3 | 0
Фильмы (HD 720p, 1080p) (48-60 fps) [ 13.66 GB ] Вдовы / Widows [2018 BDRip 720p 60 fps] sheker187 Скачать
1 | 0
Фильмы [HD 720p, 1080p] (Хороший звук DUB, MVO) [ 13.03 GB ] Вдовы / Widows [2018 BDRip 1080p] bober100 Скачать
1 | 0
Фильмы [HD 720p, 1080p] (Хороший звук DUB, MVO) [ 2.62 GB ] Вдовы / Widows [2018 BDRip 1080p HEVC ()] Мичман37 Скачать
1 | 0
Фильмы 2018 [DVDrip, WEB-DLRip, HDrip] (DUB, MVO) [ 1.46 GB ] Вдовы / Widows [2018 BDRip] DUB [ BD CEE] bober100 Скачать
1 | 0
Ultra HD (UHD: 2K, 4K, 8K) — видео сверхвысокой чёткости [ 35.63 GB ] Вдовы / Widows [2018 UHD BDRip 2160p] [SDR] DUB [] sheker187 Скачать
1 | 0
Фильмы 2018 [DVDrip, WEB-DLRip, HDrip] (DUB, MVO) [ 2.18 GB ] Вдовы / Widows [2018 BDRip] DUB [ BD CEE] bober100 Скачать
1 | 0

28-11-2019 20:33  

Отключить всю рекламу на сайте

11-02-2019 18:41 Вдовы Скачать торрент  

действительно неплохой фильм! Сюжет слегка предсказуем, но все натуральноpb.wtf



    Дорогой пользователь! Огромная просьба, поблагодарите релизера, оцените раздачу и оставьте свои комментарий, если Вы скачали Вдовы через торрент бесплатно! Внесите свою лепту в развитие PiratBit!
    Комментировать посты могут только пользователи прошедшие не сложную регистрацию
    Показать сообщения:    

    Вдовы через торрент
    Скачать бесплатно Вдовы
    Вдовы скачать торрент
    Вдовы смотреть онлайн
    Cкачать фильм Вдовы бесплатно
    Вдовы скачать торрент в хорошем качестве
    Вдовы смотреть онлайн бесплатно в хорошем качестве


    Вы не можете начинать темы
    Вы не можете отвечать на сообщения
    Вы не можете редактировать свои сообщения
    Вы не можете удалять свои сообщения
    Вы не можете голосовать в опросах
    Вы не можете прикреплять файлы к сообщениям
    Вы можете скачивать файлы