Ссылка на приватное зеркало всего за 1$. Внимание количество ограничено!!!

iTunes

1+1

iTunes

мы

WEB-DL

1

iTunes

Чернобыль

iTunes

Ральф против интернета

Лицензия

ПШазам

Лицензия

Оно 2

Лицензия

30
pack

Вам бонус

ВАЖНО

!!Акция!!

Alien_RageХит недели

RePack

Resident Evil 21

ИГРА 18+

pack

RePack

jed

!!Акция!!

Alien_Rage

RePack

fifa19

RePack

Assassins Creed: Odyssey

RePack

NEED FOR SPEED™ PAYBACK

3 сезон

9 сезон

Бесстыжие 9 сезон

Все сериалы

все сериалы на PB.wtf

RePack

FAR CRY 5
Ребята, катастрофически не хватает 1900р. для оплаты серверов за Октябрь (всвязи с блокировками трафик упал в 3 раза), 1-2р., выручайте.
  

Щелкунчик и четыре королевства / The Nutcracker and the Four Realms (Лассе Халльстрём, Джо Джонстон) [2018, фэнтези, приключения, семейный, BDRip] DUB [iTunes] pb.wtf

Щелкунчик и четыре королевства через торрент pb.wtf

Раздают: 7 [ 1 KB/s ]
Размер: 1.46 GB | Добавлен: 10 мес. назад | Торрент скачан:542 раза
Скачать  

01-02-2019 00:42 Щелкунчик и четыре королевства Скачать торрент  

Щелкунчик и четыре королевства / The Nutcracker and the Four Realms Год выпуска: 2018
Страна: США
Жанр: фэнтези, приключения, семейный
Продолжительность: 01:39:16
Перевод: Дублированный | iTunes
Субтитры: отсутствуют

Режиссер: Лассе Халльстрём, Джо Джонстон

rating

В ролях:

Маккензи Фой, Том Свит, Мира Сайал, Элли Бамбер, Мэттью Макфэдиен, Ник Мохаммед, Чарльз Стритер, Морган Фриман, Джейден Фовора-Рыцарь, Принц

Описание:

Получив необычный подарок на Рождество, юная Клара отправляется в захватывающее путешествие по загадочным местам: Стране Снегов, Стране Цветов и Стране Сладостей. Но девушке нужно попасть и в четвертое королевство, где ей придется столкнуться с целой армией мышей во главе с невероятно опасным Мышиным Королем.

Качество: BDRip
Формат: AVI

Видео: Xvid 73, 704x384, ~1704 kbps, 23,976 fps
Аудио: русский, AC3, 5.1 ch, 48 kHz, 384 kbps | iTunes
скриншот  скриншот  скриншот  скриншот  скриншот  

General
Полное имя : E:TorrentThe.Nutcracker.and.the.Four.RealmsBDRip.avi
Формат : AVI
Формат/Информация : Audio Video Interleave
Профиль формата : OpenDML
Размер файла : 1.46 GiB
Продолжительность : 1 h 39 min
Общий поток : 2 100 kb/s
Программа кодирования : XviD4PSP 6.0 / 54.27.101

Video
Идентификатор : 0
Формат : MPEG-4 Visual
Профиль формата : Advanced Simple@L5
Настройки формата : BVOP2 / Custom Matrix
Параметр BVOP формата : 2
Параметр QPel формата : No
Параметр GMC формата : No warppoints
Параметр матрицы формата : Custom
Идентификатор кодека : XVID
Идентификатор кодека/Подсказка : XviD
Продолжительность : 1 h 39 min
Битрейт : 1 704 kb/s
Ширина : 704 pixels
Высота : 384 pixels
Соотношение сторон : 1.85:1
Частота кадров : 23.976 (23976/1000) FPS
Цветовое пространство : YUV
Субдискретизация насыщенности : 4:2:0
Битовая глубина : 8 bits
Тип развёртки : Progressive
Метод сжатия : Lossy
Бит/(Пиксели*Кадры) : 0.263
Размер потока : 1.18 GiB (81%)
Библиотека кодирования : XviD 73

Audio
Идентификатор : 1
Формат : AC-3
Формат/Информация : Audio Coding 3
Идентификатор кодека : 2000
Продолжительность : 1 h 39 min
Вид битрейта : Constant
Битрейт : 384 kb/s
Каналы : 6 channels
Расположение каналов : Front: L C R, Side: L R, LFE
Частота : 48.0 kHz
Частота кадров : 31.250 FPS (1536 SPF)
Битовая глубина : 16 bits
Метод сжатия : Lossy
Размер потока : 273 MiB (18%)
Выравнивание : Aligned on interleaves
Продолжительность промежутка : 32 ms (0.77 video frame)

pb.wtf



Скачать Щелкунчик и четыре королевства через торрент http://lostpix.com/thumbs/2019-01/31/brgo7meoqn5hk25nf8q4ulhj3.png Скачать фильм Щелкунчик и четыре королевства через торрент бесплантно в хорошем качестве Описание: Получив необычный подарок на Рождество, юная Клара отправляется в захватывающее путешествие по загадочным местам: Стране Снегов, ... 10 10 17
Info! Золотая раздача, скачанное не засчитывается.
Торрент: Зарегистрирован [2019-02-01 00:42] · скачан: 542 раз
Статус: √ проверено
Размер: 1.46 GB
Как cкачать? Как скачать Щелкунчик и четыре королевства через торрент | qTorrent

% Раздел Тема Автор DL S | L
T Фильмы с украинским озвучиванием [ 3.97 GB ] Щелкунчик и четыре королевства / The Nutcracker and the Four Realms [2018 BDRip 720p] [Ukr DUB] killermax2013 Скачать
1 | 0
Фильмы 2018 [DVDrip, WEB-DLRip, HDrip] (DUB, MVO) [ 1.46 GB ] Щелкунчик и четыре королевства / The Nutcracker and the Four Realms [2018 BDRip] - [] Twi7ter Скачать
5 | 0
Ultra HD (UHD: 2K, 4K, 8K) — видео сверхвысокой чёткости [ 16.63 GB ] Щелкунчик и четыре королевства / The Nutcracker and the Four Realms [2018 UHD BDRip 2160p] DUB [ BD RUS] bober100 Скачать
1 | 0
Фильмы 2018 [DVDrip, WEB-DLRip, HDrip] (DUB, MVO) [ 2.14 GB ] Щелкунчик и четыре королевства / The Nutcracker and the Four Realms [2018 BDRip-AVC] DUB [] sheker187 Скачать
6 | 1
Фильмы [HD 720p, 1080p] (Хороший звук DUB, MVO) [ 7.72 GB ] Щелкунчик и четыре королевства / The Nutcracker and the Four Realms [2018 BDRip 1080p] DUB [] sheker187 Скачать
13 | 0
Фильмы (Blu-ray, BD-Remux, HDDVD) [ 26.02 GB ] Щелкунчик и четыре королевства / The Nutcracker and the Four Realms [2018 BDRemux 1080p] DUB [] sheker187 Скачать
2 | 0
Фильмы 2018 [DVDrip, WEB-DLRip, HDrip] (DUB, MVO) [ 1.46 GB ] Щелкунчик и четыре королевства / The Nutcracker and the Four Realms [2018 BDRip ] oleg8 Скачать
11 | 0

28-11-2019 20:33  

Отключить всю рекламу на сайте

    Дорогой пользователь! Огромная просьба, поблагодарите релизера, оцените раздачу и оставьте свои комментарий, если Вы скачали Щелкунчик и четыре королевства через торрент бесплатно! Внесите свою лепту в развитие PiratBit!
    Комментировать посты могут только пользователи прошедшие не сложную регистрацию
    Показать сообщения:    

    Щелкунчик и четыре королевства через торрент
    Скачать бесплатно Щелкунчик и четыре королевства
    Щелкунчик и четыре королевства скачать торрент
    Щелкунчик и четыре королевства смотреть онлайн
    Cкачать фильм Щелкунчик и четыре королевства бесплатно
    Щелкунчик и четыре королевства скачать торрент в хорошем качестве
    Щелкунчик и четыре королевства смотреть онлайн бесплатно в хорошем качестве


    Вы не можете начинать темы
    Вы не можете отвечать на сообщения
    Вы не можете редактировать свои сообщения
    Вы не можете удалять свои сообщения
    Вы не можете голосовать в опросах
    Вы не можете прикреплять файлы к сообщениям
    Вы можете скачивать файлы