Ссылка на приватное зеркало нашего сайта всего за 1$. Внимание количество ограничено!!!

2 сезон

iTunes

1 сезон

1

2 сезон

2 сезон

iTunes

1 сезон

RePack

30

Новинка

ВАЖНО

ИГРА 18+

pack

RePack

MK11
pack

Забери бонус

RePack

jed

!!Акция!!

Alien_Rage

RePack

fifa19

RePack

Assassins Creed: Odyssey

RePack

NEED FOR SPEED™ PAYBACK

4 сезон

9 сезон

Бесстыжие 9 сезон

Все сериалы

все сериалы на PB.wtf

RePack

FAR CRY 5
  

Молодой Монтальбано / Il giovane Montalbano / Сезон: 2 / Серии: 1-6 из 6 (Джанлука Мария Таварелли) [2015, криминал, детектив, HDTVRip 720p] DVO [ViruseProject] pb.wtf

Молодой Монтальбано через торрент pb.wtf

Размер: 7.44 GB | Добавлен: 1 год 10 мес. назад | Торрент скачан:10 раз
Скачать  

01-02-2019 05:52 Молодой Монтальбано Скачать торрент  

Молодой Монтальбано / Il giovane Montalbano

Год выпуска: 2015
Страна: Италия
Жанр: криминал, детектив
Продолжительность: ~01:58:00
Перевод: Любительский (двухголосый закадровый) ViruseProject
Субтитры: русские

Режиссёр: Джанлука Мария Таварелли

rating

В ролях:

Микеле Риондино, Сара Фельбербаум, Алессио Вассало, Андреа Тидона, Беньямино Марконе, Фабрицио Пиццуто и др.

Описание:

Сицилия, начало 90-х. Сальво Монтальбано работает вице-комиссаром полиции в Маскалиппе, маленьком городке в горах Сицилии и мечтает о море.
Его мечта сбывается и его переводят комиссаром в Вигату, город, где он родился и провел детство. Здесь его ждут новые разнообразные дела, здесь постепенно соберется его команда, полюбившаяся поклонникам сериала "Комиссар Монтальбано", наконец, здесь он встретит Ливию.

Приквел популярного сериала «Комиссар Монтальбано», основанный на детективных романах Андреа Камиллери, действие которых происходит в вымышленном городке Вигата, Сицилия.

Доп. информация: В начале первой серии вступительное слово Андреа Камиллери. В шестой серии на 18-й минуте присутствует короткий глюк.

Качество: HDTVRip 720p
Формат: MKV

Видео: 1 280 x 720 (16:9), ~1 400 kb/s, 25.000 FPS, 8 bits
Аудио Rus: 48.0 kHz, AC3, 2 channels, 192 kb/s
Аудио Ita: 48.0 kHz, MP3, 2 channels, 128 kb/s


Реклама: В аудио в начале и конце по 12 секунд.
General
Unique ID : 199805233101993791083539982403240110161 (0x96511690D7FFB4BD9C25859FF0E2A851)
Complete name : Il.giovane.Montalbano.S02E01.720p.HDTVRip.ViruseProject.mkv
Format : Matroska
Format version : Version 4 / Version 2
File size : 1.32 GiB
Duration : 1 h 51 min
Overall bit rate : 1 693 kb/s
Encoded date : UTC 2019-01-30 15:00:14
Writing application : mkvmerge v8.3.0 ('Over the Horizon') 64bit
Writing library : libebml v1.3.1 + libmatroska v1.4.2

Video
ID : 1
Format : AVC
Format/Info : Advanced Video Codec
Format profile : High@L4.1
Format settings, CABAC : Yes
Format settings, ReFrames : 5 frames
Codec ID : V_MPEG4/ISO/AVC
Duration : 1 h 51 min
Bit rate : 1 371 kb/s
Width : 1 280 pixels
Height : 720 pixels
Display aspect ratio : 16:9
Frame rate mode : Constant
Frame rate : 25.000 FPS
Color space : YUV
Chroma subsampling : 4:2:0
Bit depth : 8 bits
Scan type : Progressive
Bits/(Pixel*Frame) : 0.060
Stream size : 1.07 GiB (81%)
Writing library : x264 core 146 r2538 121396c
Encoding settings : cabac=1 / ref=5 / deblock=1:0:0 / analyse=0x3:0x113 / me=umh / subme=8 / psy=1 / psy_rd=1.00:0.00 / mixed_ref=1 / me_range=16 / chroma_me=1 / trellis=1 / 8x8dct=1 / cqm=0 / deadzone=21,11 / fast_pskip=1 / chroma_qp_offset=-2 / threads=12 / lookahead_threads=2 / sliced_threads=0 / nr=0 / decimate=1 / interlaced=0 / bluray_compat=0 / constrained_intra=0 / bframes=3 / b_pyramid=2 / b_adapt=2 / b_bias=0 / direct=3 / weightb=1 / open_gop=0 / weightp=2 / keyint=250 / keyint_min=25 / scenecut=40 / intra_refresh=0 / rc_lookahead=50 / rc=2pass / mbtree=1 / bitrate=1371 / ratetol=1.0 / qcomp=0.60 / qpmin=0 / qpmax=69 / qpstep=4 / cplxblur=20.0 / qblur=0.5 / vbv_maxrate=62500 / vbv_bufsize=78125 / nal_hrd=none / filler=0 / ip_ratio=1.40 / aq=1:1.00
Default : Yes
Forced : No

Audio #1
ID : 2
Format : AC-3
Format/Info : Audio Coding 3
Format settings, Endianness : Big
Codec ID : A_AC3
Duration : 1 h 51 min
Bit rate mode : Constant
Bit rate : 192 kb/s
Channel(s) : 2 channels
Channel positions : Front: L R
Sampling rate : 48.0 kHz
Frame rate : 31.250 FPS (1536 spf)
Bit depth : 16 bits
Compression mode : Lossy
Stream size : 154 MiB (11%)
Title : ViruseProject
Language : Russian
Service kind : Complete Main
Default : Yes
Forced : No

Audio #2
ID : 3
Format : MPEG Audio
Format version : Version 1
Format profile : Layer 3
Mode : Joint stereo
Codec ID : A_MPEG/L3
Codec ID/Hint : MP3
Duration : 1 h 51 min
Bit rate mode : Constant
Bit rate : 128 kb/s
Channel(s) : 2 channels
Sampling rate : 48.0 kHz
Frame rate : 41.667 FPS (1152 spf)
Compression mode : Lossy
Delay relative to video : 119 ms
Stream size : 102 MiB (8%)
Title : ITA MP3
Language : Italian
Default : No
Forced : No

Text
ID : 4
Format : UTF-8
Codec ID : S_TEXT/UTF8
Codec ID/Info : UTF-8 Plain Text
Duration : 1 h 51 min
Bit rate : 107 b/s
Count of elements : 1653
Stream size : 87.7 KiB (0%)
Language : Russian
Default : No
Forced : No
скриншот  скриншот  скриншот  скриншот  
pb.wtf



Скачать Молодой Монтальбано через торрент https://i84.fastpic.ru/big/2019/0131/14/526e8e1be97fa1888a51bbbda05d5314.jpg Скачать фильм Молодой Монтальбано через торрент бесплантно в хорошем качестве Описание: Сицилия, начало 90-х. Сальво Монтальбано работает вице-комиссаром полиции в Маскалиппе, маленьком городке в горах Сицилии и ... 10 10 3
Торрент: Зарегистрирован [2019-02-01 05:52] · скачан: 10 раз
Статус: √ проверено
Размер: 7.44 GB
Как cкачать? Как скачать Молодой Монтальбано через торрент | qTorrent

28-11-2019 20:33  

Отключить всю рекламу на сайте

    Дорогой пользователь! Огромная просьба, поблагодарите релизера, оцените раздачу и оставьте свои комментарий, если Вы скачали Молодой Монтальбано через торрент бесплатно! Внесите свою лепту в развитие PiratBit!
    Комментировать посты могут только пользователи прошедшие не сложную регистрацию
    Показать сообщения:    

    Молодой Монтальбано через торрент
    Скачать бесплатно Молодой Монтальбано
    Молодой Монтальбано скачать торрент
    Молодой Монтальбано смотреть онлайн
    Cкачать фильм Молодой Монтальбано бесплатно
    Молодой Монтальбано скачать торрент в хорошем качестве
    Молодой Монтальбано смотреть онлайн бесплатно в хорошем качестве


    Вы не можете начинать темы
    Вы не можете отвечать на сообщения
    Вы не можете редактировать свои сообщения
    Вы не можете удалять свои сообщения
    Вы не можете голосовать в опросах
    Вы не можете прикреплять файлы к сообщениям
    Вы можете скачивать файлы