Ссылка на приватное зеркало всего за 1$. Внимание количество ограничено!!!

OK

1+1

iTunes

мы

OK

1

WEB-DLRip

Джокер

Пифагор

Ведьмак / The Witcher сериал

Лицензия

ПШазам

ОК

Оно 2

iTunes

30
pack

Вам бонус

ВАЖНО

!!Акция!!

Alien_RageХит недели

RePack

Resident Evil 21

ИГРА 18+

pack

RePack

jed

RePack

fifa19

RePack

Assassins Creed: Odyssey

RePack

NEED FOR SPEED™ PAYBACK

4 сезон

9 сезон

Бесстыжие 9 сезон

Все сериалы

все сериалы на PB.wtf

RePack

FAR CRY 5
  

Бархатная бензопила / Velvet Buzzsaw (Дэн Гилрой / Dan Gilroy) [2019, ужасы, триллер, комедия, криминал, WEB-DL 1080p] DUB [Невафильм] pb.wtf

Бархатная бензопила через торрент pb.wtf

Раздают: 1 [ 0 KB/s ]
Размер: 4.15 GB | Добавлен: 11 мес. назад | Торрент скачан:171 раз
Скачать  

01-02-2019 11:01 Бархатная бензопила Скачать торрент  

Бархатная бензопила / Velvet Buzzsaw Год выпуска: 2019
Производство: США
Жанр: ужасы, триллер, комедия, криминал
Продолжительность: 01:52:30
Перевод: Дублированный | Невафильм
Субтитры: русские (форсированные, полные), английские (полные, SDH)

Режиссер: Дэн Гилрой / Dan Gilroy

В ролях:

Джейк Джилленхол, Джон Малкович, Тони Коллетт, Наталия Дайер, Рене Руссо

Описание:

Мир современного искусства населяют самые разные персонажи: ценители, знатоки, художники, воры, обманщики. Все они считают, что знают и любят настоящее искусство. Однажды они сталкиваются с чем-то необычным — потрясающими картинками пожилого художника-затворника. Он словно вложил в свои работы тайный смысл. Герои с жадностью кидаются на полотна, но быстро понимают: за краской и фигурами скрывается нечто зловещее.




Тип релиза: WEB-DL 1080p | NTG
Контейнер: MKV

Видео: AVC, 1920x1080 (16:9), 24 fps, ~4220 kbps
Аудио №1: E-AC3 5.1, 48 kHz, 640 kbps
Аудио №2: E-AC3+Atmos 5.1, 48 kHz, 448 kbps


Релиз: Wilmots@EniaHD
General
Unique ID : 60392758824858328346901399819533718950 (0x2D6F38E653719470DEDCB9D3801095A6)
Complete name : Velvet.Buzzsaw.2019.1080p.NF.WEB-DL.DDP5.1.x264-EniaHD.mkv
Format : Matroska
Format version : Version 4 / Version 2
File size : 4.15 GiB
Duration : 1 h 52 min
Overall bit rate mode : Variable
Overall bit rate : 5 283 kb/s
Movie name : Velvet Buzzsaw (2019) - EniaHD
Encoded date : UTC 2019-02-01 09:12:08
Writing application : mkvmerge v30.1.0 ('Forever And More') 64-bit
Writing library : libebml v1.3.6 + libmatroska v1.4.9

Video
ID : 1
Format : AVC
Format/Info : Advanced Video Codec
Format profile : Main@L4
Format settings : CABAC / 3 Ref Frames
Format settings, CABAC : Yes
Format settings, ReFrames : 3 frames
Codec ID : V_MPEG4/ISO/AVC
Duration : 1 h 52 min
Bit rate mode : Variable
Bit rate : 4 220 kb/s
Maximum bit rate : 6 330 kb/s
Width : 1 920 pixels
Height : 1 080 pixels
Display aspect ratio : 16:9
Frame rate mode : Constant
Frame rate : 24.000 FPS
Color space : YUV
Chroma subsampling : 4:2:0
Bit depth : 8 bits
Scan type : Progressive
Bits/(Pixel*Frame) : 0.085
Stream size : 3.29 GiB (79%)
Writing library : x264 core 148 r2715 7e75228
Encoding settings : cabac=1 / ref=3 / deblock=1:0:0 / analyse=0x1:0x111 / me=umh / subme=10 / psy=1 / psy_rd=1.00:0.00 / mixed_ref=1 / me_range=24 / chroma_me=1 / trellis=2 / 8x8dct=0 / cqm=0 / deadzone=21,11 / fast_pskip=1 / chroma_qp_offset=-2 / threads=8 / lookahead_threads=1 / sliced_threads=0 / nr=0 / decimate=1 / interlaced=0 / bluray_compat=0 / stitchable=1 / constrained_intra=0 / bframes=2 / b_pyramid=0 / b_adapt=2 / b_bias=0 / direct=3 / weightb=1 / open_gop=0 / weightp=2 / keyint=48 / keyint_min=25 / scenecut=0 / intra_refresh=0 / rc_lookahead=48 / rc=2pass / mbtree=1 / bitrate=4220 / ratetol=1.0 / qcomp=0.50 / qpmin=6 / qpmax=51 / qpstep=4 / cplxblur=20.0 / qblur=0.5 / vbv_maxrate=6330 / vbv_bufsize=8440 / nal_hrd=vbr / filler=0 / ip_ratio=1.40 / aq=1:1.00
Language : English
Default : Yes
Forced : No

Audio #1
ID : 2
Format : E-AC-3
Format/Info : Enhanced Audio Coding 3
Codec ID : A_EAC3
Duration : 1 h 52 min
Bit rate mode : Constant
Bit rate : 640 kb/s
Channel(s) : 6 channels
Channel positions : Front: L C R, Side: L R, LFE
Sampling rate : 48.0 kHz
Frame rate : 187.500 FPS (256 SPF)
Compression mode : Lossy
Stream size : 515 MiB (12%)
Title : DUB
Language : Russian
Service kind : Complete Main
Default : Yes
Forced : No

Audio #2
ID : 3
Format : E-AC-3
Format/Info : Enhanced Audio Coding 3
Format profile : E-AC-3+Atmos / E-AC-3
Codec ID : A_EAC3
Duration : 1 h 52 min
Bit rate mode : Constant
Bit rate : 448 kb/s
Channel(s) : 15 objects / 6 channels
Channel positions : 15 objects / Front: L C R, Side: L R, LFE
Sampling rate : 48.0 kHz
Frame rate : 187.500 FPS (256 SPF)
Compression mode : Lossy
Stream size : 361 MiB (8%)
Language : English
Service kind : Complete Main
Default : No
Forced : No

Text #1
ID : 4
Format : UTF-8
Codec ID : S_TEXT/UTF8
Codec ID/Info : UTF-8 Plain Text
Duration : 1 h 51 min
Bit rate : 2 b/s
Count of elements : 40
Stream size : 1.80 KiB (0%)
Title : Forced
Language : Russian
Default : Yes
Forced : Yes

Text #2
ID : 5
Format : UTF-8
Codec ID : S_TEXT/UTF8
Codec ID/Info : UTF-8 Plain Text
Duration : 1 h 51 min
Bit rate : 90 b/s
Count of elements : 1354
Stream size : 73.7 KiB (0%)
Language : Russian
Default : No
Forced : No

Text #3
ID : 6
Format : UTF-8
Codec ID : S_TEXT/UTF8
Codec ID/Info : UTF-8 Plain Text
Duration : 1 h 44 min
Bit rate : 57 b/s
Count of elements : 1296
Stream size : 44.0 KiB (0%)
Language : English
Default : No
Forced : No

Text #4
ID : 7
Format : UTF-8
Codec ID : S_TEXT/UTF8
Codec ID/Info : UTF-8 Plain Text
Duration : 1 h 46 min
Bit rate : 64 b/s
Count of elements : 1490
Stream size : 50.4 KiB (0%)
Title : SDH
Language : English
Default : No
Forced : No
pb.wtf



Скачать Бархатная бензопила через торрент https://i4.imageban.ru/out/2019/02/01/3e8a50c5a55770bf64fcc56309376273.jpg Скачать фильм Бархатная бензопила через торрент бесплантно в хорошем качестве Описание: Мир современного искусства населяют самые разные персонажи: ценители, знатоки, художники, воры, обманщики. Все они считают, что ... 8.9 10 9
Info! Золотая раздача, скачанное не засчитывается.
Торрент: Зарегистрирован [2019-02-01 11:01] · скачан: 171 раз
Статус: √ проверено
Размер: 4.15 GB
Как cкачать? Как скачать Бархатная бензопила через торрент | qTorrent

% Раздел Тема Автор DL S | L
Ultra HD (UHD: 2K, 4K, 8K) — видео сверхвысокой чёткости [ 14.53 GB ] Бархатная бензопила / Velvet Buzzsaw [2019 UHD WEBRip 2160p] DUB [Невафильм] sheker187 Скачать
1 | 0
Фильмы (WEB-DL 720p, 1080p) [ 5.15 GB ] Бархатная бензопила / Velvet Buzzsaw [2019 WEB-DL-HEVC 1080p] DUB [Невафильм] bober100 Скачать
2 | 7
Фильмы 2019-2020 [DVDrip, WEB-DLRip, HDrip] (DUB, MVO) [ 1.46 GB ] Бархатная бензопила / Velvet Buzzsaw [2019 WEB-DLRip] DUB [Невафильм] bober100 Скачать
3 | 0
Фильмы 2019-2020 [DVDrip, WEB-DLRip, HDrip] (DUB, MVO) [ 2.34 GB ] Бархатная бензопила / Velvet Buzzsaw [2019 WEB-DLRip-AVC] DUB [Невафильм] bober100 Скачать
2 | 0
Фильмы (WEB-DL 720p, 1080p) [ 2.47 GB ] Бархатная бензопила / Velvet Buzzsaw [2019 WEB-DL 720p] DUB [Невафильм] bober100 Скачать
1 | 0

28-11-2019 20:33  

Отключить всю рекламу на сайте

03-02-2019 15:08 Бархатная бензопила Скачать торрент  

Так себе. Чутооок интриги.Следа в памяти не оставит,но смотрелось приятно.pb.wtf



    Дорогой пользователь! Огромная просьба, поблагодарите релизера, оцените раздачу и оставьте свои комментарий, если Вы скачали Бархатная бензопила через торрент бесплатно! Внесите свою лепту в развитие PiratBit!
    Комментировать посты могут только пользователи прошедшие не сложную регистрацию
    Показать сообщения:    

    Бархатная бензопила через торрент
    Скачать бесплатно Бархатная бензопила
    Бархатная бензопила скачать торрент
    Бархатная бензопила смотреть онлайн
    Cкачать фильм Бархатная бензопила бесплатно
    Бархатная бензопила скачать торрент в хорошем качестве
    Бархатная бензопила смотреть онлайн бесплатно в хорошем качестве


    Вы не можете начинать темы
    Вы не можете отвечать на сообщения
    Вы не можете редактировать свои сообщения
    Вы не можете удалять свои сообщения
    Вы не можете голосовать в опросах
    Вы не можете прикреплять файлы к сообщениям
    Вы можете скачивать файлы