Ссылка на приватное зеркало всего за 1$. Внимание количество ограничено!!!

OK

1+1

iTunes

мы

OK

1

WEB-DLRip

Джокер

Пифагор

Ведьмак / The Witcher сериал

Лицензия

ПШазам

ОК

Оно 2

iTunes

30
pack

Вам бонус

ВАЖНО

!!Акция!!

Alien_RageХит недели

RePack

Resident Evil 21

ИГРА 18+

pack

RePack

jed

!!Акция!!

Alien_Rage

RePack

fifa19

RePack

Assassins Creed: Odyssey

RePack

NEED FOR SPEED™ PAYBACK

4 сезон

9 сезон

Бесстыжие 9 сезон

Все сериалы

все сериалы на PB.wtf

RePack

FAR CRY 5
  

Бархатная бензопила / Velvet Buzzsaw (Дэн Гилрой / Dan Gilroy) [2019, ужасы, триллер, комедия, криминал, WEB-DL 720p] DUB [Невафильм] pb.wtf

Бархатная бензопила через торрент pb.wtf

Размер: 2.47 GB | Добавлен: 11 мес. назад | Торрент скачан:229 раз
Скачать  

01-02-2019 11:06 Бархатная бензопила Скачать торрент  

Бархатная бензопила / Velvet Buzzsaw Год выпуска: 2019
Производство: США
Жанр: ужасы, триллер, комедия, криминал
Продолжительность: 01:52:30
Перевод: Дублированный | Невафильм
Субтитры: Russian (Forced, Full), English (Full, SDH) и другие

Режиссер: Дэн Гилрой / Dan Gilroy

В ролях:

Джейк Джилленхол, Джон Малкович, Тони Коллетт, Наталия Дайер, Рене Руссо

Описание:

Мир современного искусства населяют самые разные персонажи: ценители, знатоки, художники, воры, обманщики. Все они считают, что знают и любят настоящее искусство. Однажды они сталкиваются с чем-то необычным — потрясающими картинками пожилого художника-затворника. Он словно вложил в свои работы тайный смысл. Герои с жадностью кидаются на полотна, но быстро понимают: за краской и фигурами скрывается нечто зловещее.




Тип релиза: WEB-DL 720p
Контейнер: MKV

Видео: 1280x720 at 24.000 fps, MPEG-4 AVC, ~2300 kbps avg
Аудио №1: Russian: 48 kHz, AC3, 3/2 (L,C,R,l,r) + LFE ch, ~448 kbps avg |Дубляж, Невафильм по заказу Netflix|
Аудио №2: English: 48 kHz, AC3, 3/2 (L,C,R,l,r) + LFE ch, ~448 kbps avg
скриншот  скриншот  скриншот  скриншот  

Общее
Уникальный идентификатор : 173826482222723543006334990487961810199 (0x82C5C341E1B26F9780B0260B72D13517)
Полное имя : D:\Бархатная бензопила. 2019. DUB (WEB-DL 720p).mkv
Формат : Matroska
Версия формата : Version 2
Размер файла : 2,47 Гбайт
Продолжительность : 1 ч. 52 м.
Режим общего битрейта : Переменный
Общий поток : 3146 Кбит/сек
Название фильма : Velvet Buzzsaw
Дата кодирования : UTC 2019-02-01 11:23:55
Программа кодирования : mkvmerge v6.9.1 ('Blue Panther') 32bit built on Apr 18 2014 18:15:44
Библиотека кодирования : libebml v1.3.0 + libmatroska v1.4.1
Обложка : Yes
Attachments : Cover_Velvet_Buzzsaw.png

Видео
Идентификатор : 1
Формат : AVC
Формат/Информация : Advanced Video Codec
Профиль формата : Main@L3.1
Параметр CABAC формата : Да
Параметр RefFrames формата : 3 кадра
Идентификатор кодека : V_MPEG4/ISO/AVC
Продолжительность : 1 ч. 52 м.
Вид битрейта : Переменный
Битрейт : 2260 Кбит/сек
Максимальный битрейт : 3390 Кбит/сек
Ширина : 1280 пикселей
Высота : 720 пикселей
Соотношение сторон : 16:9
Режим частоты кадров : Постоянный
Частота кадров : 24,000 кадра/сек
Цветовое пространство : YUV
Субдискретизация насыщенности : 4:2:0
Битовая глубина : 8 бит
Тип развёртки : Прогрессивная
Бит/(Пиксели*Кадры) : 0.102
Размер потока : 1,72 Гбайт (70%)
Библиотека кодирования : x264 core 148 r2715 7e75228
Настройки программы : cabac=1 / ref=3 / deblock=1:0:0 / analyse=0x1:0x111 / me=umh / subme=10 / psy=1 / psy_rd=1.00:0.00 / mixed_ref=1 / me_range=24 / chroma_me=1 / trellis=2 / 8x8dct=0 / cqm=0 / deadzone=21,11 / fast_pskip=1 / chroma_qp_offset=-2 / threads=8 / lookahead_threads=1 / sliced_threads=0 / nr=0 / decimate=1 / interlaced=0 / bluray_compat=0 / stitchable=1 / constrained_intra=0 / bframes=2 / b_pyramid=0 / b_adapt=2 / b_bias=0 / direct=3 / weightb=1 / open_gop=0 / weightp=2 / keyint=48 / keyint_min=25 / scenecut=0 / intra_refresh=0 / rc_lookahead=48 / rc=2pass / mbtree=1 / bitrate=2260 / ratetol=1.0 / qcomp=0.50 / qpmin=6 / qpmax=51 / qpstep=4 / cplxblur=20.0 / qblur=0.5 / vbv_maxrate=3390 / vbv_bufsize=4520 / nal_hrd=vbr / filler=0 / ip_ratio=1.40 / aq=1:1.00
Язык : English
Default : Да
Forced : Нет

Аудио #1
Идентификатор : 2
Формат : AC-3
Формат/Информация : Audio Coding 3
Расширение режима : CM (complete main)
Параметр Endianness формата : Big
Идентификатор кодека : A_AC3
Продолжительность : 1 ч. 52 м.
Вид битрейта : Постоянный
Битрейт : 448 Кбит/сек
Каналы : 6 каналов
Расположение каналов : Front: L C R, Side: L R, LFE
Частота : 48,0 КГц
Частота кадров : 31,250 кадров/сек (1536 spf)
Метод сжатия : С потерями
Размер потока : 361 Мбайт (14%)
Заголовок : Dub
Язык : Russian
Default : Да
Forced : Нет

Аудио #2
Идентификатор : 3
Формат : AC-3
Формат/Информация : Audio Coding 3
Расширение режима : CM (complete main)
Параметр Endianness формата : Big
Идентификатор кодека : A_AC3
Продолжительность : 1 ч. 52 м.
Вид битрейта : Постоянный
Битрейт : 448 Кбит/сек
Каналы : 6 каналов
Расположение каналов : Front: L C R, Side: L R, LFE
Частота : 48,0 КГц
Частота кадров : 31,250 кадров/сек (1536 spf)
Метод сжатия : С потерями
Размер потока : 361 Мбайт (14%)
Язык : English
Default : Нет
Forced : Нет

Текст #1
Идентификатор : 4
Формат : UTF-8
Идентификатор кодека : S_TEXT/UTF8
Идентификатор кодека/Информация : UTF-8 Plain Text
Заголовок : Forced
Язык : Russian
Default : Да
Forced : Да

Текст #2
Идентификатор : 5
Формат : UTF-8
Идентификатор кодека : S_TEXT/UTF8
Идентификатор кодека/Информация : UTF-8 Plain Text
Язык : Russian
Default : Нет
Forced : Нет

Текст #3
Идентификатор : 6
Формат : UTF-8
Идентификатор кодека : S_TEXT/UTF8
Идентификатор кодека/Информация : UTF-8 Plain Text
Заголовок : SDH
Язык : English
Default : Нет
Forced : Нет

Текст #4
Идентификатор : 7
Формат : UTF-8
Идентификатор кодека : S_TEXT/UTF8
Идентификатор кодека/Информация : UTF-8 Plain Text
Язык : German
Default : Нет
Forced : Нет

Текст #5
Идентификатор : 8
Формат : UTF-8
Идентификатор кодека : S_TEXT/UTF8
Идентификатор кодека/Информация : UTF-8 Plain Text
Язык : French
Default : Нет
Forced : Нет

Текст #6
Идентификатор : 9
Формат : UTF-8
Идентификатор кодека : S_TEXT/UTF8
Идентификатор кодека/Информация : UTF-8 Plain Text
Язык : Italian
Default : Нет
Forced : Нет

Текст #7
Идентификатор : 10
Формат : UTF-8
Идентификатор кодека : S_TEXT/UTF8
Идентификатор кодека/Информация : UTF-8 Plain Text
Язык : Spanish
Default : Нет
Forced : Нет

Текст #8
Идентификатор : 11
Формат : UTF-8
Идентификатор кодека : S_TEXT/UTF8
Идентификатор кодека/Информация : UTF-8 Plain Text
Язык : Portuguese
Default : Нет
Forced : Нет

pb.wtf



Скачать Бархатная бензопила через торрент https://i4.imageban.ru/out/2019/02/01/3e8a50c5a55770bf64fcc56309376273.jpg Скачать фильм Бархатная бензопила через торрент бесплантно в хорошем качестве Описание: Мир современного искусства населяют самые разные персонажи: ценители, знатоки, художники, воры, обманщики. Все они считают, что ... 9.9 10 8
Торрент: Зарегистрирован [2019-02-01 12:07] · скачан: 229 раз
Статус: √ проверено
Размер: 2.47 GB
Как cкачать? Как скачать Бархатная бензопила через торрент | qTorrent

% Раздел Тема Автор DL S | L
Ultra HD (UHD: 2K, 4K, 8K) — видео сверхвысокой чёткости [ 14.53 GB ] Бархатная бензопила / Velvet Buzzsaw [2019 UHD WEBRip 2160p] DUB [Невафильм] sheker187 Скачать
1 | 0
Фильмы (WEB-DL 720p, 1080p) [ 5.15 GB ] Бархатная бензопила / Velvet Buzzsaw [2019 WEB-DL-HEVC 1080p] DUB [Невафильм] bober100 Скачать
2 | 4
Фильмы (WEB-DL 720p, 1080p) [ 4.15 GB ] Бархатная бензопила / Velvet Buzzsaw [2019 WEB-DL 1080p] DUB [Невафильм] bober100 Скачать
2 | 0
Фильмы 2019-2020 [DVDrip, WEB-DLRip, HDrip] (DUB, MVO) [ 1.46 GB ] Бархатная бензопила / Velvet Buzzsaw [2019 WEB-DLRip] DUB [Невафильм] bober100 Скачать
1 | 0
Фильмы 2019-2020 [DVDrip, WEB-DLRip, HDrip] (DUB, MVO) [ 2.34 GB ] Бархатная бензопила / Velvet Buzzsaw [2019 WEB-DLRip-AVC] DUB [Невафильм] bober100 Скачать
5 | 0

28-11-2019 20:33  

Отключить всю рекламу на сайте

    Дорогой пользователь! Огромная просьба, поблагодарите релизера, оцените раздачу и оставьте свои комментарий, если Вы скачали Бархатная бензопила через торрент бесплатно! Внесите свою лепту в развитие PiratBit!
    Комментировать посты могут только пользователи прошедшие не сложную регистрацию
    Показать сообщения:    

    Бархатная бензопила через торрент
    Скачать бесплатно Бархатная бензопила
    Бархатная бензопила скачать торрент
    Бархатная бензопила смотреть онлайн
    Cкачать фильм Бархатная бензопила бесплатно
    Бархатная бензопила скачать торрент в хорошем качестве
    Бархатная бензопила смотреть онлайн бесплатно в хорошем качестве


    Вы не можете начинать темы
    Вы не можете отвечать на сообщения
    Вы не можете редактировать свои сообщения
    Вы не можете удалять свои сообщения
    Вы не можете голосовать в опросах
    Вы не можете прикреплять файлы к сообщениям
    Вы можете скачивать файлы