Ссылка на приватное зеркало нашего сайта всего за 1$. Внимание количество ограничено!!!

2 сезон

iTunes

1 сезон

1

2 сезон

2 сезон

iTunes

1 сезон

RePack

30

Ultimate

ВАЖНО

ИГРА 18+

pack

RePack

MK11
pack

Забери бонус

RePack

jed

!!Акция!!

Alien_Rage

RePack

fifa19

RePack

Assassins Creed: Odyssey

RePack

NEED FOR SPEED™ PAYBACK

4 сезон

9 сезон

Бесстыжие 9 сезон

Все сериалы

все сериалы на PB.wtf

RePack

FAR CRY 5
  

Пирсинг / Piercing (Николас Песке) [2018, ужасы, триллер, WEB-DL 1080p] DUB [iTunes] pb.wtf

Пирсинг через торрент pb.wtf

Раздают: 1 [ 0 KB/s ]
Размер: 3.19 GB | Добавлен: 1 год 9 мес. назад | Торрент скачан:246 раз
Скачать  

01-02-2019 17:18 Пирсинг Скачать торрент  

Пирсинг / Piercing Год выпуска: 2018
Страна: США
Жанр: ужасы, триллер
Продолжительность: 01:21:15
Перевод: Дублированный | iTunes
Субтитры: отсутствуют

Режиссер: Николас Песке

rating
В ролях:

Кристофер Эбботт, Миа Васиковска, Лайа Коста, Оливия Бонд, Мария Диззия, Марин Айрлэнд, Дакота Лустик, Уенделл Пирс

Описание:

Рид - симпатичный парень, любящий муж и отец. Но в тихом омуте... Уже много лет он одержим желанием убить кого-нибудь ножом для колки льда. Когда наваждение становится нестерпимым, он решается прикончить проститутку. План преступления разработан до мельчайших деталей. Рид не предусмотрел только, что по его вызову приедет она, Джеки, работающая в стиле садо-мазо, сама любительница холодного оружия, немного чокнутая, но романтичная. Они встречаются... и между ними начинается смертельная игра в кошки-мышки, игра, где между любовью и ненавистью 50 миллиметров стали.

Качество: WEB-DL 1080p
Формат: MKV

Видео: AVC, 5236 Кбит/сек, 1920x1080, 24.000 кадр/сек
Аудио: AC-3, 384 Кбит/сек, 6 каналов, 48.0 kHz - Russian
скриншот  скриншот  скриншот  скриншот  скриншот  

General
Unique ID : 200493939483792311550988351567381837180 (0x96D5BA697AECFC4B930328ED3C36B57C)
Complete name : C:DownloadsPiercing.2018.D.WEB-DL.1080p.mkv
Format : Matroska
Format version : Version 4
File size : 3.19 GiB
Duration : 1 h 21 min
Overall bit rate : 5 622 kb/s
Encoded date : UTC 2019-02-01 08:39:02
Writing application : mkvmerge v8.3.0 ('Over the Horizon') 64bit
Writing library : libebml v1.3.1 + libmatroska v1.4.2

Video
ID : 2
Format : AVC
Format/Info : Advanced Video Codec
Format profile : High@L4
Format settings : CABAC / 4 Ref Frames
Format settings, CABAC : Yes
Format settings, ReFrames : 4 frames
Codec ID : V_MPEG4/ISO/AVC
Duration : 1 h 21 min
Bit rate : 5 236 kb/s
Width : 1 920 pixels
Height : 1 080 pixels
Display aspect ratio : 16:9
Frame rate mode : Constant
Frame rate : 24.000 FPS
Color space : YUV
Chroma subsampling : 4:2:0
Bit depth : 8 bits
Scan type : Progressive
Bits/(Pixel*Frame) : 0.105
Stream size : 2.97 GiB (93%)
Language : English
Default : Yes
Forced : No
Color range : Limited
Color primaries : BT.709
Transfer characteristics : BT.709
Matrix coefficients : BT.709

Audio
ID : 1
Format : AC-3
Format/Info : Audio Coding 3
Commercial name : Dolby Digital
Codec ID : A_AC3
Duration : 1 h 21 min
Bit rate mode : Constant
Bit rate : 384 kb/s
Channel(s) : 6 channels
Channel layout : L R C LFE Ls Rs
Sampling rate : 48.0 kHz
Frame rate : 31.250 FPS (1536 SPF)
Bit depth : 16 bits
Compression mode : Lossy
Stream size : 223 MiB (7%)
Language : Russian
Service kind : Complete Main
Default : Yes
Forced : No

pb.wtf



Скачать Пирсинг через торрент https://c.radikal.ru/c09/1901/fc/3810c1017b78.jpg Скачать фильм Пирсинг через торрент бесплантно в хорошем качестве Описание: Рид - симпатичный парень, любящий муж и отец. Но в тихом омуте... Уже много лет он одержим желанием убить кого-нибудь ножом для ... 10 10 7
Торрент: Зарегистрирован [2019-02-01 17:18] · скачан: 246 раз
Статус: √ проверено
Размер: 3.19 GB
Как cкачать? Как скачать Пирсинг через торрент | qTorrent

% Раздел Тема Автор DL S | L
Фильмы 2018 [DVDrip, WEB-DLRip, HDrip] (DUB, MVO) [ 1.66 GB ] Пирсинг / Piercing [2018 BDRip-AVC] MVO [HDRezka Studio] + bober100 Скачать
1 | 0
Фильмы 2018 [DVDrip, WEB-DLRip, HDrip] (DUB, MVO) [ 1.42 GB ] Пирсинг / Piercing [2018 BDRip] - Twi7ter Скачать
1 | 0
Фильмы 2018 [DVDrip, WEB-DLRip, HDrip] (DUB, MVO) [ 1.42 GB ] Пирсинг / Piercing [2018 BDRip] bober100 Скачать
1 | 0
Фильмы (Blu-ray, BD-Remux, HDDVD) [ 15.41 GB ] Пирсинг / Piercing [2018 BD Remux 1080p] bober100 Скачать
1 | 0
Разное [ 123 MB ] Экстремальный пирсинг [Bizarre Piercing Freak Gape; CamRip] sniff Скачать
1 | 0

28-11-2019 20:33  

Отключить всю рекламу на сайте

    Дорогой пользователь! Огромная просьба, поблагодарите релизера, оцените раздачу и оставьте свои комментарий, если Вы скачали Пирсинг через торрент бесплатно! Внесите свою лепту в развитие PiratBit!
    Комментировать посты могут только пользователи прошедшие не сложную регистрацию
    Показать сообщения:    

    Пирсинг через торрент
    Скачать бесплатно Пирсинг
    Пирсинг скачать торрент
    Пирсинг смотреть онлайн
    Cкачать фильм Пирсинг бесплатно
    Пирсинг скачать торрент в хорошем качестве
    Пирсинг смотреть онлайн бесплатно в хорошем качестве


    Вы не можете начинать темы
    Вы не можете отвечать на сообщения
    Вы не можете редактировать свои сообщения
    Вы не можете удалять свои сообщения
    Вы не можете голосовать в опросах
    Вы не можете прикреплять файлы к сообщениям
    Вы можете скачивать файлы