Ссылка на приватное зеркало нашего сайта всего за 1$. Внимание количество ограничено!!!

2 сезон

iTunes

1 сезон

1

2 сезон

2 сезон

iTunes

1 сезон

RePack

30

Ultimate

ВАЖНО

ИГРА 18+

pack

RePack

MK11
pack

Забери бонус

RePack

jed

!!Акция!!

Alien_Rage

RePack

fifa19

RePack

Assassins Creed: Odyssey

RePack

NEED FOR SPEED™ PAYBACK

4 сезон

9 сезон

Бесстыжие 9 сезон

Все сериалы

все сериалы на PB.wtf

RePack

FAR CRY 5
  

Попутчик / The Hitcher (Роберт Хармон) [1986 г., боевик, ужасы, триллер, Blu-Ray Remux 1080p] 3xMVO, 4xDVO, 8xAVO, VO pb.wtf

Попутчик через торрент pb.wtf

Размер: 37.66 GB | Добавлен: 1 год 9 мес. назад | Торрент скачан:6 раз
Скачать  

01-02-2019 17:51 Попутчик Скачать торрент  

Попутчик / The Hitcher
«Что бы вы ни сделали, он всё равно впереди вас. Как бы вы ни поступили, он ещё больше в выигрыше»
Год выпуска: 1986

Страна: США

Жанр: Боевик, ужасы, триллер

Продолжительность: 01:37:15

Перевод: Профессиональный (многоголосый), профессиональный (двухголосый), авторский (одноголосый), любительский (одноголосый)

Субтитры: Русские, английские

Режиссер: Роберт Хармон

rating

В ролях: Рутгер Хауэр, С. Томас Хауэлл, Дженнифер Джейсон Ли, Джеффри ДеМанн, Джон М. Джексон, Билли Грин Буш, Джек Тибо, Армин Шимерман, Джин Дэвис, Джон Ван Несс, Генри Дэрроу, Тони Эппер, Том Спрэтли, Колин Кэмпбелл, Бриттания, Гарт Шоу

Описание: Перегоняя Кадиллак через Техас, Джим Холси подбирает на дороге попутчика. С этого момента жизнь Джима превращается в сплошной кошмарный сон. Вездесущий и неуязвимый Попутчик оставляет за собой жуткий кровавый след. Он убивает всех на своём пути, причём так, что все улики указывают на Джима. Помощи просить не у кого, никто не верит в существование Попутчика, даже новая подружка Джима, Нэш. И Джим, преследуемый и маньяком и полицией, вынужден принять вызов Попутчика и сразиться с ним в игре на выживание.
Качество: Blu-Ray Remux 1080p
Формат: BDMV
Видео кодек: MPEG-4 AVC
Аудио кодек: AC3, DTS
Видео: MPEG-4 AVC, 30000 Кбит/с, 1920x1080, 24 кадр/с
Аудио #1 : Русский (AC3, 6 ch, 384 Кбит/с) - Профессиональный многоголосый
Аудио #2 : Русский (AC3, 6 ch, 384 Кбит/с) - Профессиональный многоголосый
Аудио #3 : Русский (AC3, 2 ch, 192 Кбит/с) - Профессиональный многоголосый (Рен-TV/НТВ-поздний)
Аудио #4 : Русский (AC3, 2 ch, 192 Кбит/с) - Профессиональный двухголосый (НТВ - ранний)
Аудио #5 : Русский (AC3, 2 ch, 192 Кбит/с) - Профессиональный двухголосый (Екатеринбург Арт)
Аудио #6 : Русский (DTS-HD MA, 6 ch, 3595 Кбит/с) - Профессиональный двухголосый (CP Digital/Total DVD)
Аудио #7 : Русский (DTS-HD MA, 6 ch, 3588 Кбит/с) - Авторский одноголосый (Сербин)
Аудио #8 : Русский (DTS-HD MA, 6 ch, 3591 Кбит/с) - Авторский одноголосый (Живов)
Аудио #9 : Русский (DTS-HD MA, 6 ch, 3586 Кбит/с) - Авторский одноголосый (Пучков)
Аудио #10 : Русский (AC3, 6 ch, 384 Кбит/с) - Авторский одноголосый (Гаврилов)
Аудио #11 : Русский (AC3, 6 ch, 384 Кбит/с) - Авторский одноголосый (Горчаков)
Аудио #12 : Русский (AC3, 2 ch, 192 Кбит/с) - Авторский одноголосый (Гаврилов 2)
Аудио #13 : Русский (AC3, 2 ch, 192 Кбит/с) - Авторский одноголосый (Гаврилов 3)
Аудио #14 : Русский (AC3, 2 ch, 192 Кбит/с) - Авторский одноголосый (Володарский)
Аудио #15 : Русский (AC3, 2 ch, 192 Кбит/с) - Любительский одноголосый
Аудио #16 : Украинский (AC3, 2 ch, 192 Кбит/с) - Профессиональный двухголосый (1+1)
Аудио #17 : Английский (DTS-HD MA, 6 ch, 3571 Кбит/с) – Оригинал
Аудио #18 : Английский (AC3, 2 ch, 192 Кбит/с) - Оригинал (Комментарии)
Аудио #19 : Английский (AC3, 2 ch, 192 Кбит/с) - Оригинал (Комментарии)
Видео
Идентификатор : 4113 (0x1011)
Идентификатор меню : 1 (0x1)
Формат : AVC
Формат/Информация : Advanced Video Codec
Профиль формата : High@L4.1
Настройки формата : CABAC / 4 Ref Frames
Параметр CABAC формата : Да
Параметр RefFrames формата : 4 кадра
Идентификатор кодека : 27
Продолжительность : 1 ч. 37 м.
Вид битрейта : Постоянный
Номинальный битрейт : 30,0 Мбит/сек
Ширина : 1920 пикселей
Высота : 1080 пикселей
Соотношение сторон : 16:9
Частота кадров : 24,000 кадра/сек
Цветовое пространство : YUV
Субдискретизация насыщенности : 4:2:0
Битовая глубина : 8 бит
Тип развёртки : Прогрессивная
Бит/(Пиксели*Кадры) : 0.603

Аудио #1
Идентификатор : 4352 (0x1100)
Идентификатор меню : 1 (0x1)
Формат : AC-3
Формат/Информация : Audio Coding 3
Коммерческое название : Dolby Digital
Идентификатор кодека : 129
Продолжительность : 1 ч. 37 м.
Вид битрейта : Постоянный
Битрейт : 384 Кбит/сек
Каналы : 6 каналов
Channel layout : L R C LFE Ls Rs
Частота : 48,0 КГц
Частота кадров : 31,250 кадров/сек (1536 SPF)
Битовая глубина : 16 бит
Метод сжатия : С потерями
Размер потока : 267 Мбайт (1%)
Язык : Russian
ServiceKind/String : Complete Main

Аудио #2
Идентификатор : 4353 (0x1101)
Идентификатор меню : 1 (0x1)
Формат : AC-3
Формат/Информация : Audio Coding 3
Коммерческое название : Dolby Digital
Идентификатор кодека : 129
Продолжительность : 1 ч. 37 м.
Вид битрейта : Постоянный
Битрейт : 384 Кбит/сек
Каналы : 6 каналов
Channel layout : L R C LFE Ls Rs
Частота : 48,0 КГц
Частота кадров : 31,250 кадров/сек (1536 SPF)
Битовая глубина : 16 бит
Метод сжатия : С потерями
Размер потока : 267 Мбайт (1%)
Язык : Russian
ServiceKind/String : Complete Main

Аудио #3
Идентификатор : 4354 (0x1102)
Идентификатор меню : 1 (0x1)
Формат : AC-3
Формат/Информация : Audio Coding 3
Коммерческое название : Dolby Digital
Идентификатор кодека : 129
Продолжительность : 1 ч. 37 м.
Вид битрейта : Постоянный
Битрейт : 192 Кбит/сек
Каналы : 2 канала
Channel layout : L R
Частота : 48,0 КГц
Частота кадров : 31,250 кадров/сек (1536 SPF)
Битовая глубина : 16 бит
Метод сжатия : С потерями
Размер потока : 134 Мбайт (0%)
Язык : Russian
ServiceKind/String : Complete Main

Аудио #4
Идентификатор : 4355 (0x1103)
Идентификатор меню : 1 (0x1)
Формат : AC-3
Формат/Информация : Audio Coding 3
Коммерческое название : Dolby Digital
Идентификатор кодека : 129
Продолжительность : 1 ч. 37 м.
Вид битрейта : Постоянный
Битрейт : 192 Кбит/сек
Каналы : 2 канала
Channel layout : L R
Частота : 48,0 КГц
Частота кадров : 31,250 кадров/сек (1536 SPF)
Битовая глубина : 16 бит
Метод сжатия : С потерями
Размер потока : 134 Мбайт (0%)
Язык : Russian
ServiceKind/String : Complete Main

Аудио #5
Идентификатор : 4356 (0x1104)
Идентификатор меню : 1 (0x1)
Формат : AC-3
Формат/Информация : Audio Coding 3
Коммерческое название : Dolby Digital
Идентификатор кодека : 129
Продолжительность : 1 ч. 37 м.
Вид битрейта : Постоянный
Битрейт : 192 Кбит/сек
Каналы : 2 канала
Channel layout : L R
Частота : 48,0 КГц
Частота кадров : 31,250 кадров/сек (1536 SPF)
Битовая глубина : 16 бит
Метод сжатия : С потерями
Размер потока : 134 Мбайт (0%)
Язык : Russian
ServiceKind/String : Complete Main

Аудио #6
Идентификатор : 4357 (0x1105)
Идентификатор меню : 1 (0x1)
Формат : DTS XLL
Формат/Информация : Digital Theater Systems
Коммерческое название : DTS-HD Master Audio
Режим смешивания : Stream extension
Идентификатор кодека : 134
Продолжительность : 1 ч. 37 м.
Вид битрейта : Переменный
Каналы : 6 каналов
Channel layout : C L R Ls Rs LFE
Частота : 48,0 КГц
Частота кадров : 93,750 кадра/сек (512 SPF)
Битовая глубина : 24 бит
Метод сжатия : Без потерь
Язык : Russian

Аудио #7
Идентификатор : 4358 (0x1106)
Идентификатор меню : 1 (0x1)
Формат : DTS XLL
Формат/Информация : Digital Theater Systems
Коммерческое название : DTS-HD Master Audio
Режим смешивания : Stream extension
Идентификатор кодека : 134
Продолжительность : 1 ч. 37 м.
Вид битрейта : Переменный
Каналы : 6 каналов
Channel layout : C L R Ls Rs LFE
Частота : 48,0 КГц
Частота кадров : 93,750 кадра/сек (512 SPF)
Битовая глубина : 24 бит
Метод сжатия : Без потерь
Язык : Russian

Аудио #8
Идентификатор : 4359 (0x1107)
Идентификатор меню : 1 (0x1)
Формат : DTS XLL
Формат/Информация : Digital Theater Systems
Коммерческое название : DTS-HD Master Audio
Режим смешивания : Stream extension
Идентификатор кодека : 134
Продолжительность : 1 ч. 37 м.
Вид битрейта : Переменный
Каналы : 6 каналов
Channel layout : C L R Ls Rs LFE
Частота : 48,0 КГц
Частота кадров : 93,750 кадра/сек (512 SPF)
Битовая глубина : 24 бит
Метод сжатия : Без потерь
Язык : Russian

Аудио #9
Идентификатор : 4360 (0x1108)
Идентификатор меню : 1 (0x1)
Формат : DTS XLL
Формат/Информация : Digital Theater Systems
Коммерческое название : DTS-HD Master Audio
Режим смешивания : Stream extension
Идентификатор кодека : 134
Продолжительность : 1 ч. 37 м.
Вид битрейта : Переменный
Каналы : 6 каналов
Channel layout : C L R Ls Rs LFE
Частота : 48,0 КГц
Частота кадров : 93,750 кадра/сек (512 SPF)
Битовая глубина : 24 бит
Метод сжатия : Без потерь
Язык : Russian

Аудио #10
Идентификатор : 4361 (0x1109)
Идентификатор меню : 1 (0x1)
Формат : AC-3
Формат/Информация : Audio Coding 3
Коммерческое название : Dolby Digital
Идентификатор кодека : 129
Продолжительность : 1 ч. 37 м.
Вид битрейта : Постоянный
Битрейт : 384 Кбит/сек
Каналы : 6 каналов
Channel layout : L R C LFE Ls Rs
Частота : 48,0 КГц
Частота кадров : 31,250 кадров/сек (1536 SPF)
Битовая глубина : 16 бит
Метод сжатия : С потерями
Размер потока : 267 Мбайт (1%)
Язык : Russian
ServiceKind/String : Complete Main

Аудио #11
Идентификатор : 4362 (0x110A)
Идентификатор меню : 1 (0x1)
Формат : AC-3
Формат/Информация : Audio Coding 3
Коммерческое название : Dolby Digital
Идентификатор кодека : 129
Продолжительность : 1 ч. 37 м.
Вид битрейта : Постоянный
Битрейт : 384 Кбит/сек
Каналы : 6 каналов
Channel layout : L R C LFE Ls Rs
Частота : 48,0 КГц
Частота кадров : 31,250 кадров/сек (1536 SPF)
Битовая глубина : 16 бит
Метод сжатия : С потерями
Размер потока : 267 Мбайт (1%)
Язык : Russian
ServiceKind/String : Complete Main

Аудио #12
Идентификатор : 4363 (0x110B)
Идентификатор меню : 1 (0x1)
Формат : AC-3
Формат/Информация : Audio Coding 3
Коммерческое название : Dolby Digital
Идентификатор кодека : 129
Продолжительность : 1 ч. 37 м.
Вид битрейта : Постоянный
Битрейт : 192 Кбит/сек
Каналы : 2 канала
Channel layout : L R
Частота : 48,0 КГц
Частота кадров : 31,250 кадров/сек (1536 SPF)
Битовая глубина : 16 бит
Метод сжатия : С потерями
Размер потока : 134 Мбайт (0%)
Язык : Russian
ServiceKind/String : Complete Main

Аудио #13
Идентификатор : 4364 (0x110C)
Идентификатор меню : 1 (0x1)
Формат : AC-3
Формат/Информация : Audio Coding 3
Коммерческое название : Dolby Digital
Идентификатор кодека : 129
Продолжительность : 1 ч. 37 м.
Вид битрейта : Постоянный
Битрейт : 192 Кбит/сек
Каналы : 2 канала
Channel layout : L R
Частота : 48,0 КГц
Частота кадров : 31,250 кадров/сек (1536 SPF)
Битовая глубина : 16 бит
Метод сжатия : С потерями
Размер потока : 134 Мбайт (0%)
Язык : Russian
ServiceKind/String : Complete Main

Аудио #14
Идентификатор : 4365 (0x110D)
Идентификатор меню : 1 (0x1)
Формат : AC-3
Формат/Информация : Audio Coding 3
Коммерческое название : Dolby Digital
Идентификатор кодека : 129
Продолжительность : 1 ч. 37 м.
Вид битрейта : Постоянный
Битрейт : 192 Кбит/сек
Каналы : 2 канала
Channel layout : L R
Частота : 48,0 КГц
Частота кадров : 31,250 кадров/сек (1536 SPF)
Битовая глубина : 16 бит
Метод сжатия : С потерями
Размер потока : 134 Мбайт (0%)
Язык : Russian
ServiceKind/String : Complete Main

Аудио #15
Идентификатор : 4366 (0x110E)
Идентификатор меню : 1 (0x1)
Формат : AC-3
Формат/Информация : Audio Coding 3
Коммерческое название : Dolby Digital
Идентификатор кодека : 129
Продолжительность : 1 ч. 37 м.
Вид битрейта : Постоянный
Битрейт : 192 Кбит/сек
Каналы : 2 канала
Channel layout : L R
Частота : 48,0 КГц
Частота кадров : 31,250 кадров/сек (1536 SPF)
Битовая глубина : 16 бит
Метод сжатия : С потерями
Размер потока : 134 Мбайт (0%)
Язык : Russian
ServiceKind/String : Complete Main

Аудио #16
Идентификатор : 4367 (0x110F)
Идентификатор меню : 1 (0x1)
Формат : AC-3
Формат/Информация : Audio Coding 3
Коммерческое название : Dolby Digital
Идентификатор кодека : 129
Продолжительность : 1 ч. 37 м.
Вид битрейта : Постоянный
Битрейт : 192 Кбит/сек
Каналы : 2 канала
Channel layout : L R
Частота : 48,0 КГц
Частота кадров : 31,250 кадров/сек (1536 SPF)
Битовая глубина : 16 бит
Метод сжатия : С потерями
Размер потока : 134 Мбайт (0%)
Язык : Ukrainian
ServiceKind/String : Complete Main

Аудио #17
Идентификатор : 4368 (0x1110)
Идентификатор меню : 1 (0x1)
Формат : DTS XLL
Формат/Информация : Digital Theater Systems
Коммерческое название : DTS-HD Master Audio
Режим смешивания : Stream extension
Идентификатор кодека : 134
Продолжительность : 1 ч. 37 м.
Вид битрейта : Переменный
Каналы : 6 каналов
Channel layout : C L R Ls Rs LFE
Частота : 48,0 КГц
Частота кадров : 93,750 кадра/сек (512 SPF)
Битовая глубина : 24 бит
Метод сжатия : Без потерь
Язык : English

Аудио #18
Идентификатор : 4369 (0x1111)
Идентификатор меню : 1 (0x1)
Формат : AC-3
Формат/Информация : Audio Coding 3
Коммерческое название : Dolby Digital
Идентификатор кодека : 129
Продолжительность : 1 ч. 37 м.
Вид битрейта : Постоянный
Битрейт : 192 Кбит/сек
Каналы : 2 канала
Channel layout : L R
Частота : 48,0 КГц
Частота кадров : 31,250 кадров/сек (1536 SPF)
Битовая глубина : 16 бит
Метод сжатия : С потерями
Размер потока : 134 Мбайт (0%)
Язык : English
ServiceKind/String : Complete Main

Аудио #19
Идентификатор : 4370 (0x1112)
Идентификатор меню : 1 (0x1)
Формат : AC-3
Формат/Информация : Audio Coding 3
Коммерческое название : Dolby Digital
Идентификатор кодека : 129
Продолжительность : 1 ч. 37 м.
Вид битрейта : Постоянный
Битрейт : 192 Кбит/сек
Каналы : 2 канала
Channel layout : L R
Частота : 48,0 КГц
Частота кадров : 31,250 кадров/сек (1536 SPF)
Битовая глубина : 16 бит
Метод сжатия : С потерями
Размер потока : 134 Мбайт (0%)
Язык : English
ServiceKind/String : Complete Main

Текст #1
Идентификатор : 4608 (0x1200)
Идентификатор меню : 1 (0x1)
Формат : PGS
Идентификатор кодека : 144
Задержка видео : 4 с. 0 мс.
Язык : Russian

Текст #2
Идентификатор : 4609 (0x1201)
Идентификатор меню : 1 (0x1)
Формат : PGS
Идентификатор кодека : 144
Задержка видео : 3 с. 917 мс.
Язык : Russian

Текст #3
Идентификатор : 4610 (0x1202)
Идентификатор меню : 1 (0x1)
Формат : PGS
Идентификатор кодека : 144
Язык : English

скриншот   скриншот   скриншот   скриншот   скриншот  

pb.wtf



Скачать Попутчик через торрент http://pic1.kartinco.top/images/12/jw51i.jpg Скачать фильм Попутчик через торрент бесплантно в хорошем качестве Описание: Перегоняя Кадиллак через Техас, Джим Холси подбирает на дороге попутчика. С этого момента жизнь Джима превращается в сплошной ... 5 10 1
Торрент: Зарегистрирован [2019-02-01 17:51] · скачан: 6 раз
Статус: √ проверено
Размер: 37.66 GB
Как cкачать? Как скачать Попутчик через торрент | qTorrent

28-11-2019 20:33  

Отключить всю рекламу на сайте

    Дорогой пользователь! Огромная просьба, поблагодарите релизера, оцените раздачу и оставьте свои комментарий, если Вы скачали Попутчик через торрент бесплатно! Внесите свою лепту в развитие PiratBit!
    Комментировать посты могут только пользователи прошедшие не сложную регистрацию
    Показать сообщения:    

    Попутчик через торрент
    Скачать бесплатно Попутчик
    Попутчик скачать торрент
    Попутчик смотреть онлайн
    Cкачать фильм Попутчик бесплатно
    Попутчик скачать торрент в хорошем качестве
    Попутчик смотреть онлайн бесплатно в хорошем качестве


    Вы не можете начинать темы
    Вы не можете отвечать на сообщения
    Вы не можете редактировать свои сообщения
    Вы не можете удалять свои сообщения
    Вы не можете голосовать в опросах
    Вы не можете прикреплять файлы к сообщениям
    Вы можете скачивать файлы