Ссылка на приватное зеркало нашего сайта всего за 1$. Внимание количество ограничено!!!

2 сезон

iTunes

1 сезон

1

2 сезон

2 сезон

iTunes

1 сезон

RePack

30

Ultimate

ВАЖНО

ИГРА 18+

pack

RePack

MK11
pack

Забери бонус

RePack

jed

!!Акция!!

Alien_Rage

RePack

fifa19

RePack

Assassins Creed: Odyssey

RePack

NEED FOR SPEED™ PAYBACK

4 сезон

9 сезон

Бесстыжие 9 сезон

Все сериалы

все сериалы на PB.wtf

RePack

FAR CRY 5
  

Убийственный класс / Академия смерти / Deadly Class / Сезон: 1 / Серии: 1-10 из 10 (Адам Кэйн, Эми Канаан Манн, Ли Толанд Кригер) [2018, боевик, триллер, драма, криминал, WEB-DL 1080p] [MVO] (TVShows) pb.wtf

Убийственный класс через торрент pb.wtf

Размер: 17.61 GB | Добавлен: 1 год 7 мес. назад | Торрент скачан:10 раз
Скачать  

01-02-2019 19:41 Убийственный класс Скачать торрент  


Убийственный класс / Академия смерти / Deadly Class
Год выпуска • 2018
Страна • США
Жанр • боевик, триллер, драма, криминал
Продолжительность • ~01:00:00
Перевод• Профессиональный (многоголосый, закадровый) *TVShows*
Субтитры: английские

Создатель • Майлз Орион Фельд, Рик Ремендер

В ролях • Бенжамин Вэдсворт, Шиван Уильямс, Тэйлор Хиксон, Джек Джиллетт, Хуан Грэй, Кристофер Хейердал, Майк Кова, Лана Кондор, Мария Габриела де Фария и др.
Описание • В центре сюжета — бездомный подросток Маркус Лопес, который случайно попадает в элитную частную школу для убийц. Там детей киллеров и знаменитых преступников учат убивать, чтобы они продолжили дело родителей. Но главный герой совершенно не похож на своих одноклассников; всё, что происходит в школе, противоречит его принципам.

ratingскриншот  

Качество: WEB-DL 1080p
Формат: MKV
Видео: MPEG-4 AVC / ~ 2819 kbps / 1920х1080p / 29.970 fps
Аудио 1: Русский 48 kHz, AC3, 48.0 KHz, 6 channels, 384 kbps
Аудио 2: English 48 kHz, E-AC3, 48.0 KHz, 6 channels, 640 kbps
скриншот  скриншот  скриншот  
General
Unique ID : 126135824985435054079347246315863472552 (0x5EE4E05142CDA93FC4E56C221336F9A8)
Complete name : F:\Deadly.Class.S01.1080p.TVShows\Deadly.Class.S01E01.1080p.TVShows.mkv
Format : Matroska
Format version : Version 4 / Version 2
File size : 1.47 GiB
Duration : 53 min 35 s
Overall bit rate : 3 921 kb/s
Encoded date : UTC 2019-01-31 12:12:30
Writing application : mkvmerge v30.1.0 ('Forever And More') 64-bit
Writing library : libebml v1.3.6 + libmatroska v1.4.9

Video
ID : 1
Format : AVC
Format/Info : Advanced Video Codec
Format profile : High@L4
Format settings : CABAC / 4 Ref Frames
Format settings, CABAC : Yes
Format settings, RefFrames : 4 frames
Codec ID : V_MPEG4/ISO/AVC
Duration : 53 min 35 s
Bit rate : 2 819 kb/s
Width : 1 920 pixels
Height : 1 080 pixels
Display aspect ratio : 16:9
Frame rate mode : Constant
Frame rate : 23.976 (24000/1001) FPS
Color space : YUV
Chroma subsampling : 4:2:0
Bit depth : 8 bits
Scan type : Progressive
Bits/(Pixel*Frame) : 0.057
Stream size : 1.06 GiB (72%)
Default : Yes
Forced : No
Color range : Limited
Color primaries : BT.709
Transfer characteristics : BT.709
Matrix coefficients : BT.709

Audio #1
ID : 2
Format : AC-3
Format/Info : Audio Coding 3
Format settings, Endianness : Big
Codec ID : A_AC3
Duration : 53 min 35 s
Bit rate mode : Constant
Bit rate : 384 kb/s
Channel(s) : 6 channels
Channel positions : Front: L C R, Side: L R, LFE
Sampling rate : 48.0 kHz
Frame rate : 31.250 FPS (1536 SPF)
Bit depth : 16 bits
Compression mode : Lossy
Stream size : 147 MiB (10%)
Title : TVShows
Language : Russian
Service kind : Complete Main
Default : Yes
Forced : Yes

Audio #2
ID : 3
Format : E-AC-3
Format/Info : Enhanced Audio Coding 3
Format settings, Endianness : Big
Codec ID : A_EAC3
Duration : 53 min 35 s
Bit rate mode : Constant
Bit rate : 640 kb/s
Channel(s) : 6 channels
Channel positions : Front: L C R, Side: L R, LFE
Sampling rate : 48.0 kHz
Frame rate : 187.500 FPS (256 SPF)
Compression mode : Lossy
Stream size : 245 MiB (16%)
Title : Original
Language : English
Service kind : Complete Main
Default : No
Forced : No

Text
ID : 4
Format : UTF-8
Codec ID : S_TEXT/UTF8
Codec ID/Info : UTF-8 Plain Text
Title : English
Language : English
Default : No
Forced : No
Внимание! Раздача ведётся путём добавления новых серий; при каждом добавлении создётся новый торрент. Чтобы начать докачку новой серии, пользователям необходимо сделать следующее:
Остановить скачивание.
Удалить старый торрент у себя из клиента (старые серии удалять не надо).
Скачать новый торрент и запустить его у себя в клиенте вместо старого, при этом указать клиенту путь в старую папку куда и должно происходить скачивание новых серий.
Ваш клиент при этом должен произвести хеширование (проверку) старой папки (если не производит сам - помогите ему сделать это), и будет докачивать только те серии которых у вас ещё нет. Старые серии при этом не удаляются, а продолжают раздаваться!
Eсли вы уже удалили старые серии, то предотвратить повторную закачку старых серий можно, отжав галочку в соответсвующих местах при запуске нового торрента. По возможности, желательно не удалять старые серии как можно дольше чтобы релизёр не столько продолжал раздавать старые серии, а смог сконцентрироваться на новых.
pb.wtf



Скачать Убийственный класс через торрент https://i109.fastpic.ru/big/2019/0201/c8/6d35488a45d7d44a8439cae93b1f95c8.jpg Скачать фильм Убийственный класс через торрент бесплантно в хорошем качестве Описание • В центре сюжета — бездомный подросток Маркус Лопес, который случайно попадает в элитную частную школу для убийц. Там детей ... 6.5 10 4
Торрент: Зарегистрирован [2019-03-31 08:23] · скачан: 10 раз
Статус: √ проверено
Размер: 17.61 GB
Как cкачать? Как скачать Убийственный класс через торрент | qTorrent

% Раздел Тема Автор DL S | L
Зарубежные сериалы [ 5.25 GB ] Убийственный класс / Академия смерти / Deadly Class / Сезон: 1 / Серии: 1-10 из 10 [2018 WEB-DLRip] MVO [Good People] bober100 Скачать
1 | 0
Зарубежные сериалы [ 7.5 GB ] Убийственный класс / Академия смерти / Deadly Class / Сезон: 1 / Серии: 1-10 из 10 [2018 WEB-DLRip] MVO [TVShows] bober100 Скачать
1 | 0
Зарубежные сериалы [ 8.11 GB ] Убийственный класс / Академия смерти / Deadly Class / Сезон: 1 / Серии: 1-10 из 10 [2019 WEB-DLRip] MVO [LostFilm] bober100 Скачать
1 | 0
Зарубежные сериалы [ 12.7 GB ] Убийственный класс / Академия смерти / Deadly Class / Сезон: 1 / Серии: 1-10 из 10 [2018 WEBRip 1080p] [MVO] killermax2013 Скачать
1 | 0

28-11-2019 20:33  

Отключить всю рекламу на сайте

    Дорогой пользователь! Огромная просьба, поблагодарите релизера, оцените раздачу и оставьте свои комментарий, если Вы скачали Убийственный класс через торрент бесплатно! Внесите свою лепту в развитие PiratBit!
    Комментировать посты могут только пользователи прошедшие не сложную регистрацию
    Показать сообщения:    

    Убийственный класс через торрент
    Скачать бесплатно Убийственный класс
    Убийственный класс скачать торрент
    Убийственный класс смотреть онлайн
    Cкачать фильм Убийственный класс бесплатно
    Убийственный класс скачать торрент в хорошем качестве
    Убийственный класс смотреть онлайн бесплатно в хорошем качестве


    Вы не можете начинать темы
    Вы не можете отвечать на сообщения
    Вы не можете редактировать свои сообщения
    Вы не можете удалять свои сообщения
    Вы не можете голосовать в опросах
    Вы не можете прикреплять файлы к сообщениям
    Вы можете скачивать файлы