Ссылка на приватное зеркало всего за 1$. Внимание количество ограничено!!!

iTunes

1+1

iTunes

мы

WEB-DL

1

iTunes

Чернобыль

iTunes

Ральф против интернета

Лицензия

ПШазам

Лицензия

Оно 2

Лицензия

30
pack

Вам бонус

ВАЖНО

!!Акция!!

Alien_RageХит недели

RePack

Resident Evil 21

ИГРА 18+

pack

RePack

jed

!!Акция!!

Alien_Rage

RePack

fifa19

RePack

Assassins Creed: Odyssey

RePack

NEED FOR SPEED™ PAYBACK

3 сезон

9 сезон

Бесстыжие 9 сезон

Все сериалы

все сериалы на PB.wtf

RePack

FAR CRY 5
Ребята, катастрофически не хватает 1900р. для оплаты серверов за Октябрь (всвязи с блокировками трафик упал в 3 раза), 1-2р., выручайте.
  

Бархатная бензопила / Velvet Buzzsaw (Дэн Гилрой / Dan Gilroy) [2019, ужасы, триллер, комедия, криминал, WEB-DLRip-AVC] DUB [Невафильм] pb.wtf

Бархатная бензопила через торрент pb.wtf

Раздают: 3 [ 0 KB/s ]
Размер: 2.34 GB | Добавлен: 10 мес. назад | Торрент скачан:419 раз
Скачать  

01-02-2019 19:45 Бархатная бензопила Скачать торрент  

Бархатная бензопила / Velvet Buzzsaw Год выпуска: 2019
Производство: США
Жанр: ужасы, триллер, комедия, криминал
Продолжительность: 01:52:30
Перевод: Дублированный | по заказу Netflix
Субтитры: Русские (форс., полные), Английские (полные, SDH)

Режиссер: Дэн Гилрой / Dan Gilroy

В ролях:

Джейк Джилленхол, Джон Малкович, Тони Коллетт, Наталия Дайер, Рене Руссо

Описание:

Мир современного искусства населяют самые разные персонажи: ценители, знатоки, художники, воры, обманщики. Все они считают, что знают и любят настоящее искусство. Однажды они сталкиваются с чем-то необычным — потрясающими картинками пожилого художника-затворника. Он словно вложил в свои работы тайный смысл. Герои с жадностью кидаются на полотна, но быстро понимают: за краской и фигурами скрывается нечто зловещее.




Качество: WEB-DLRip-AVC
Формат: MKV

Видео: 1024x554 (1.85:1), 24,000 fps, x264 ~2 087 kbps avg, 0.153 bit/pixel
Аудио#1: 48 kHz, AC3 Dolby Digital, 3/2 (L,C,R,l,r) + LFE ch, ~448.00 kbps avg | RUS (Невафильм)
Аудио#2: 48 kHz, E-AC3 Dolby Digital Plus, 3/2 (L,C,R,l,r) + LFE ch, ~448.00 kbps avg | ENG
скриншот  скриншот  скриншот  скриншот  скриншот  

Общее
Уникальный идентификатор : 307494312561385584143341957765755879986 (0xE755401C1EAB146BEA93F4569AECC232)
Полное имя : F:\OlLanDGroup\Velvet.Buzzsaw.2019.WEB-DLRip(AVC).OlLanDGroup.mkv
Формат : Matroska
Версия формата : Version 4 / Version 2
Размер файла : 2,34 Гбайт
Продолжительность : 1 ч. 52 м.
Общий поток : 2982 Кбит/сек
Название фильма : Velvet Buzzsaw (2019) #TorpedoUK#
Дата кодирования : UTC 2019-02-01 19:17:32
Программа кодирования : mkvmerge v29.0.0 ('Like It Or Not') 64-bit
Библиотека кодирования : libebml v1.3.6 + libmatroska v1.4.9

Видео
Идентификатор : 1
Формат : AVC
Формат/Информация : Advanced Video Codec
Профиль формата : High@L4.1
Параметр CABAC формата : Да
Параметр ReFrames формата : 10 кадров
Идентификатор кодека : V_MPEG4/ISO/AVC
Продолжительность : 1 ч. 52 м.
Битрейт : 2087 Кбит/сек
Ширина : 1024 пикселя
Высота : 554 пикселя
Соотношение сторон : 1,85:1
Режим частоты кадров : Постоянный
Частота кадров : 24,000 кадра/сек
Цветовое пространство : YUV
Субдискретизация насыщенности : 4:2:0
Битовая глубина : 8 бит
Тип развёртки : Прогрессивная
Бит/(Пиксели*Кадры) : 0.153
Размер потока : 1,64 Гбайт (70%)
Библиотека кодирования : x264 core 146 r2538 121396c
Настройки программы : cabac=1 / ref=10 / deblock=1:-3:-2 / analyse=0x3:0x113 / me=umh / subme=10 / psy=1 / psy_rd=0.95:0.07 / mixed_ref=1 / me_range=48 / chroma_me=1 / trellis=2 / 8x8dct=1 / cqm=0 / deadzone=21,11 / fast_pskip=1 / chroma_qp_offset=-3 / threads=6 / lookahead_threads=1 / sliced_threads=0 / nr=0 / decimate=1 / interlaced=0 / bluray_compat=0 / constrained_intra=0 / bframes=11 / b_pyramid=2 / b_adapt=2 / b_bias=0 / direct=3 / weightb=1 / open_gop=0 / weightp=2 / keyint=240 / keyint_min=24 / scenecut=40 / intra_refresh=0 / rc_lookahead=40 / rc=2pass / mbtree=0 / bitrate=2087 / ratetol=1.0 / qcomp=0.60 / qpmin=0 / qpmax=69 / qpstep=4 / cplxblur=20.0 / qblur=0.5 / vbv_maxrate=50000 / vbv_bufsize=62500 / nal_hrd=none / filler=0 / ip_ratio=1.40 / pb_ratio=1.30 / aq=1:1.00
Язык : English
Default : Да
Forced : Нет

Аудио #1
Идентификатор : 2
Формат : AC-3
Формат/Информация : Audio Coding 3
Расширение режима : CM (complete main)
Параметр Endianness формата : Big
Идентификатор кодека : A_AC3
Продолжительность : 1 ч. 52 м.
Вид битрейта : Постоянный
Битрейт : 448 Кбит/сек
Каналы : 6 каналов
Расположение каналов : Front: L C R, Side: L R, LFE
Частота : 48,0 КГц
Частота кадров : 31,250 кадров/сек (1536 spf)
Битовая глубина : 16 бит
Метод сжатия : С потерями
Размер потока : 361 Мбайт (15%)
Заголовок : DUB [Невафильм]
Язык : Russian
Default : Да
Forced : Нет

Аудио #2
Идентификатор : 3
Формат : E-AC-3
Формат/Информация : Enhanced Audio Coding 3
Параметр Endianness формата : Big
Идентификатор кодека : A_EAC3
Продолжительность : 1 ч. 52 м.
Вид битрейта : Постоянный
Битрейт : 448 Кбит/сек
Каналы : 6 каналов
Расположение каналов : Front: L C R, Side: L R, LFE
Частота : 48,0 КГц
Частота кадров : 187,500 кадров/сек (256 spf)
Метод сжатия : С потерями
Размер потока : 361 Мбайт (15%)
Заголовок : [Original]
Язык : English
Default : Нет
Forced : Нет

Текст #1
Идентификатор : 4
Формат : UTF-8
Идентификатор кодека : S_TEXT/UTF8
Идентификатор кодека/Информация : UTF-8 Plain Text
Продолжительность : 1 ч. 51 м.
Битрейт : 2 бит/сек
Count of elements : 40
Размер потока : 1,80 Кбайт (0%)
Заголовок : Forced
Язык : Russian
Default : Да
Forced : Нет

Текст #2
Идентификатор : 5
Формат : UTF-8
Идентификатор кодека : S_TEXT/UTF8
Идентификатор кодека/Информация : UTF-8 Plain Text
Продолжительность : 1 ч. 51 м.
Битрейт : 90 бит/сек
Count of elements : 1354
Размер потока : 73,7 Кбайт (0%)
Заголовок : Full
Язык : Russian
Default : Нет
Forced : Нет

Текст #3
Идентификатор : 6
Формат : UTF-8
Идентификатор кодека : S_TEXT/UTF8
Идентификатор кодека/Информация : UTF-8 Plain Text
Продолжительность : 1 ч. 44 м.
Битрейт : 57 бит/сек
Count of elements : 1296
Размер потока : 44,0 Кбайт (0%)
Заголовок : Full
Язык : English
Default : Нет
Forced : Нет

Текст #4
Идентификатор : 7
Формат : UTF-8
Идентификатор кодека : S_TEXT/UTF8
Идентификатор кодека/Информация : UTF-8 Plain Text
Продолжительность : 1 ч. 46 м.
Битрейт : 64 бит/сек
Count of elements : 1490
Размер потока : 50,4 Кбайт (0%)
Заголовок : SDH
Язык : English
Default : Нет
Forced : Нет

pb.wtf



Скачать Бархатная бензопила через торрент https://i4.imageban.ru/out/2019/02/01/3e8a50c5a55770bf64fcc56309376273.jpg Скачать фильм Бархатная бензопила через торрент бесплантно в хорошем качестве Описание: Мир современного искусства населяют самые разные персонажи: ценители, знатоки, художники, воры, обманщики. Все они считают, что ... 9.9 10 13
Торрент: Зарегистрирован [2019-02-01 19:45] · скачан: 419 раз
Статус: √ проверено
Размер: 2.34 GB
Как cкачать? Как скачать Бархатная бензопила через торрент | qTorrent

% Раздел Тема Автор DL S | L
Ultra HD (UHD: 2K, 4K, 8K) — видео сверхвысокой чёткости [ 14.53 GB ] Бархатная бензопила / Velvet Buzzsaw [2019 UHD WEBRip 2160p] DUB [Невафильм] sheker187 Скачать
1 | 0
Фильмы (WEB-DL 720p, 1080p) [ 5.15 GB ] Бархатная бензопила / Velvet Buzzsaw [2019 WEB-DL-HEVC 1080p] DUB [Невафильм] bober100 Скачать
2 | 3
Фильмы (WEB-DL 720p, 1080p) [ 4.15 GB ] Бархатная бензопила / Velvet Buzzsaw [2019 WEB-DL 1080p] DUB [Невафильм] bober100 Скачать
1 | 0
Фильмы 2019 [DVDrip, WEB-DLRip, HDrip] (DUB, MVO) [ 1.46 GB ] Бархатная бензопила / Velvet Buzzsaw [2019 WEB-DLRip] DUB [Невафильм] bober100 Скачать
3 | 0
Фильмы (WEB-DL 720p, 1080p) [ 2.47 GB ] Бархатная бензопила / Velvet Buzzsaw [2019 WEB-DL 720p] DUB [Невафильм] bober100 Скачать
1 | 0

28-11-2019 20:33  

Отключить всю рекламу на сайте

    Дорогой пользователь! Огромная просьба, поблагодарите релизера, оцените раздачу и оставьте свои комментарий, если Вы скачали Бархатная бензопила через торрент бесплатно! Внесите свою лепту в развитие PiratBit!
    Комментировать посты могут только пользователи прошедшие не сложную регистрацию
    Показать сообщения:    

    Бархатная бензопила через торрент
    Скачать бесплатно Бархатная бензопила
    Бархатная бензопила скачать торрент
    Бархатная бензопила смотреть онлайн
    Cкачать фильм Бархатная бензопила бесплатно
    Бархатная бензопила скачать торрент в хорошем качестве
    Бархатная бензопила смотреть онлайн бесплатно в хорошем качестве


    Вы не можете начинать темы
    Вы не можете отвечать на сообщения
    Вы не можете редактировать свои сообщения
    Вы не можете удалять свои сообщения
    Вы не можете голосовать в опросах
    Вы не можете прикреплять файлы к сообщениям
    Вы можете скачивать файлы