Ссылка на приватное зеркало нашего сайта всего за 1$. Внимание количество ограничено!!!

2 сезон

iTunes

1 сезон

1

2 сезон

2 сезон

iTunes

1 сезон

RePack

30

Ultimate

ВАЖНО

ИГРА 18+

pack

RePack

MK11
pack

Забери бонус

RePack

jed

!!Акция!!

Alien_Rage

RePack

fifa19

RePack

Assassins Creed: Odyssey

RePack

NEED FOR SPEED™ PAYBACK

4 сезон

9 сезон

Бесстыжие 9 сезон

Все сериалы

все сериалы на PB.wtf

RePack

FAR CRY 5
  

Маньяк / Maniac / Сезон: 1 / Серии: 1-10 из 10 (Кэри Фукунага) [2018, Фантастика, драма, комедия, WEB-DL 720p] [DVO] (Кубик в Кубе) pb.wtf

Маньяк через торрент pb.wtf

Раздают: 2 [ 0 KB/s ]
Размер: 7.89 GB | Добавлен: 1 год 9 мес. назад | Торрент скачан:139 раз
Скачать  

01-02-2019 20:45 Маньяк Скачать торрент  

Информация о сериале

Название: Маньяк
Оригинальное название: Maniac
Год выпуска: 2018
Жанр: Фантастика, драма, комедия
Выпущено: США, Anonymous Content, Paramount Television
Продолжительность: 10 x ~ 00:45:00
Перевод: Профессиональный (двухголосый закадровый)*Кубик в Кубе*
Субтитры: английские

Режиссер: Кэри Фукунага

В ролях: Джона Хилл, Билли Магнуссен, Соноя Мидзуно, Эмма Стоун, Седжал Шах, Аралин Андерсон, Александра Каррен, Кристиан ДеМараис, Джулия Гарнер, Рому Канда

Описание сериала:

Энни Лендсберг и Оуэн Милгрим — два незнакомца, согласившиеся принять участие в испытании нового фармацевтического средства. У каждого на это свои причины. Энни пытается справиться с разрушенными отношениями, а Оуэн переживает из-за шизофрении, которую ему поставили еще в детстве. Новое лекарство доктора Мантлрэя обещает исправить любое заболевание, вплоть до разбитого сердца. Только вот почему-то никто не хочет говорить о побочных эффектах.

rating

Релиз -- CasStudio
Работа со звуком: Messafan

Файл

Качество: WEB-DL 720p
Формат MKV
Видео: 1280x720 at 23.976 fps, MPEG-4 AVC, ~2000 kbps avg
Аудио 1: Russian: 48 kHz, AC3, 3/2 (L,C,R,l,r) + LFE ch, ~640.00 kbps avg |KvK|
Аудио 2: English: 48 kHz, AC3, 3/2 (L,C,R,l,r) + LFE ch, ~640.00 kbps avg
Субтитры: Отсутствуют
скриншот  скриншот  скриншот  
General
Unique ID : 226244498836339733229928180311015412673 (0xAA351B0273F441ECA19BB640BD29D3C1)
Complete name : F:\Maniac.2018.S01.720p.WEBDL.CasStudio.TV\Maniac.2018.S01E01.The.Chosen.One.720p.WEBDL.KvK.CasStudio.TV.mkv
Format : Matroska
Format version : Version 4 / Version 2
File size : 922 MiB
Duration : 41 min 12 s
Overall bit rate mode : Variable
Overall bit rate : 3 129 kb/s
Movie name : Maniac 2018 01x01 (The Chosen One) - release by messafan for CasStudio.TV
Encoded date : UTC 2018-10-07 17:17:39
Writing application : mkvmerge v6.7.0 ('Back to the Ground') 64bit built on Jan 8 2014 15:10:52
Writing library : libebml v1.3.0 + libmatroska v1.4.1

Video
ID : 1
Format : AVC
Format/Info : Advanced Video Codec
Format profile : Main@L3.1
Format settings : CABAC / 3 Ref Frames
Format settings, CABAC : Yes
Format settings, RefFrames : 3 frames
Codec ID : V_MPEG4/ISO/AVC
Duration : 41 min 12 s
Bit rate mode : Variable
Bit rate : 1 870 kb/s
Maximum bit rate : 2 805 kb/s
Width : 1 280 pixels
Height : 720 pixels
Display aspect ratio : 16:9
Frame rate mode : Constant
Frame rate : 23.976 (24000/1001) FPS
Color space : YUV
Chroma subsampling : 4:2:0
Bit depth : 8 bits
Scan type : Progressive
Bits/(Pixel*Frame) : 0.085
Stream size : 527 MiB (57%)
Writing library : x264 core 148 r2715 7e75228
Encoding settings : cabac=1 / ref=3 / deblock=1:0:0 / analyse=0x1:0x111 / me=umh / subme=10 / psy=1 / psy_rd=1.00:0.00 / mixed_ref=1 / me_range=24 / chroma_me=1 / trellis=2 / 8x8dct=0 / cqm=0 / deadzone=21,11 / fast_pskip=1 / chroma_qp_offset=-2 / threads=8 / lookahead_threads=1 / sliced_threads=0 / nr=0 / decimate=1 / interlaced=0 / bluray_compat=0 / stitchable=1 / constrained_intra=0 / bframes=2 / b_pyramid=0 / b_adapt=2 / b_bias=0 / direct=3 / weightb=1 / open_gop=0 / weightp=2 / keyint=48 / keyint_min=25 / scenecut=0 / intra_refresh=0 / rc_lookahead=48 / rc=2pass / mbtree=1 / bitrate=1870 / ratetol=1.0 / qcomp=0.50 / qpmin=6 / qpmax=51 / qpstep=4 / cplxblur=20.0 / qblur=0.5 / vbv_maxrate=2805 / vbv_bufsize=3740 / nal_hrd=vbr / filler=0 / ip_ratio=1.40 / aq=1:1.00
Default : Yes
Forced : No

Audio #1
ID : 2
Format : AC-3
Format/Info : Audio Coding 3
Format settings, Endianness : Big
Codec ID : A_AC3
Duration : 41 min 12 s
Bit rate mode : Constant
Bit rate : 640 kb/s
Channel(s) : 6 channels
Channel positions : Front: L C R, Side: L R, LFE
Sampling rate : 48.0 kHz
Frame rate : 31.250 FPS (1536 SPF)
Bit depth : 16 bits
Compression mode : Lossy
Stream size : 189 MiB (20%)
Title : KvK DD5.1 @ 640kbps
Language : Russian
Service kind : Complete Main
Default : Yes
Forced : No

Audio #2
ID : 3
Format : AC-3
Format/Info : Audio Coding 3
Format settings, Endianness : Big
Codec ID : A_AC3
Duration : 41 min 12 s
Bit rate mode : Constant
Bit rate : 640 kb/s
Channel(s) : 6 channels
Channel positions : Front: L C R, Side: L R, LFE
Sampling rate : 48.0 kHz
Frame rate : 31.250 FPS (1536 SPF)
Bit depth : 16 bits
Compression mode : Lossy
Stream size : 189 MiB (20%)
Title : English DD5.1 @ 640kbps
Language : English
Service kind : Complete Main
Default : No
Forced : No

Text
ID : 4
Format : UTF-8
Codec ID : S_TEXT/UTF8
Codec ID/Info : UTF-8 Plain Text
Title : SDH
Language : English
Default : No
Forced : No
pb.wtf



Скачать Маньяк через торрент https://i110.fastpic.ru/big/2019/0201/e2/8ff19560a428a1cfe09daa02c96209e2.png Скачать фильм Маньяк через торрент бесплантно в хорошем качестве Описание сериала:Энни Лендсберг и Оуэн Милгрим — два незнакомца, согласившиеся принять участие в испытании нового фармацевтического ... 9.7 10 3
Торрент: Зарегистрирован [2019-02-01 20:45] · скачан: 139 раз
Статус: √ проверено
Размер: 7.89 GB
Как cкачать? Как скачать Маньяк через торрент | qTorrent

% Раздел Тема Автор DL S | L
Зарубежные сериалы [ 7.86 GB ] Маньяк / Maniac / Сезон: 1 / Серии: 1-10 из 10 [2018 WEB-DLRip] [MVO] killermax2013 Скачать
1 | 0
Зарубежные сериалы [ 5.32 GB ] Помешанный / Маньяк / Maniac / Сезон: 1 / Серии: 1-10 из 10 [2014 WEBRip 720p] MVO [Good People] bober100 Скачать
1 | 0
Зарубежные сериалы [ 2.45 GB ] Маньяк / Помешанный / Maniac / Сезон: 1 / Серии: 1-10 из 10 [2014 WEB-DLRip] MVO [Good People] bober100 Скачать
1 | 0
Зарубежные сериалы [ 6.38 GB ] Маньяк / Maniac / Сезон: 1 / Серии: 1-10 из 10 [2018 WEB-DLRip] [MVO] killermax2013 Скачать
1 | 0
Зарубежные сериалы [ 4.66 GB ] Маньяк / Maniac / Сезон: 1 / Серии: 1-10 из 10 [2018 WEBRip] MVO [LostFilm] bober100 Скачать
1 | 0
Зарубежные сериалы [ 36.81 GB ] Маньяк / Maniac / Сезон: 1 / Серии: 1-10 из 10 [2018 WEBRip 1080p] [MVO] killermax2013 Скачать
1 | 0
Зарубежные сериалы [ 13.32 GB ] Маньяк / Maniac / Сезон: 1 / Серии: 1-10 из 10 [2018 WEBRip 1080p] MVO [NewStudio] bober100 Скачать
2 | 0

28-11-2019 20:33  

Отключить всю рекламу на сайте

    Дорогой пользователь! Огромная просьба, поблагодарите релизера, оцените раздачу и оставьте свои комментарий, если Вы скачали Маньяк через торрент бесплатно! Внесите свою лепту в развитие PiratBit!
    Комментировать посты могут только пользователи прошедшие не сложную регистрацию
    Показать сообщения:    

    Маньяк через торрент
    Скачать бесплатно Маньяк
    Маньяк скачать торрент
    Маньяк смотреть онлайн
    Cкачать фильм Маньяк бесплатно
    Маньяк скачать торрент в хорошем качестве
    Маньяк смотреть онлайн бесплатно в хорошем качестве


    Вы не можете начинать темы
    Вы не можете отвечать на сообщения
    Вы не можете редактировать свои сообщения
    Вы не можете удалять свои сообщения
    Вы не можете голосовать в опросах
    Вы не можете прикреплять файлы к сообщениям
    Вы можете скачивать файлы