Ссылка на приватное зеркало нашего сайта всего за 1$. Внимание количество ограничено!!!

2 сезон

iTunes

1 сезон

1

2 сезон

2 сезон

iTunes

1 сезон

RePack

30

Ultimate

ВАЖНО

ИГРА 18+

pack

RePack

MK11
pack

Забери бонус

RePack

jed

!!Акция!!

Alien_Rage

RePack

fifa19

RePack

Assassins Creed: Odyssey

RePack

NEED FOR SPEED™ PAYBACK

4 сезон

9 сезон

Бесстыжие 9 сезон

Все сериалы

все сериалы на PB.wtf

RePack

FAR CRY 5
  

Подводная лодка / Das Boot / Сезон: 1 / Серии: 1-8 из 8 (Андреас Прохаска) [2018, Драма, военный, HDTVRip] [MVO] (SDI Media) pb.wtf

Подводная лодка через торрент pb.wtf

Размер: 5.78 GB | Добавлен: 1 год 10 мес. назад | Торрент скачан:253 раза
Скачать  

01-02-2019 22:24 Подводная лодка Скачать торрент  

Подводная лодка / Das Boot
Год выпуска: 2018
Страна: Германия
Жанр: Драма, военный
Продолжительность: 01:00:00
Перевод: Профессиональный (многоголосый закадровый) - SDI Media
Режиссёр: Андреас Прохаска
В ролях: Филип Бирнштиль, Пит Буковски, Джулиус Фельдмайер, Йоахим Ферстер, Леонард Кунц, Бен Мюнхов, Леонард Шайхер, Том Влашиха, Рик Окон, Аугуст Витгенштайн, Йоханнес Хайнрихс, Пьер Кивитт, Райнер Бок, Лиззи Каплан, Джеймс Д`Арси, Франц Динда, Тьерри Фремон, Виктория Хоган, Винсент Картайзер, Штефан Конарске
Описание: По сюжету действия происходят в 1942 году через несколько месяцев после событий, когда союзникам удалось разгадать код шифровальной машины «Энигма», а на оккупированных территориях развернулась новая волна антинацистского движения. Команде известной субмарины во главе с новым капитаном Клаусом Хоффманом придется пройти через еще более жесткие испытания и военные столкновения.

«Подводная лодка» — это история о сложном выборе, выживании, пределах человеческих чувств и жесткой правде жизни во времена бессмысленной войны.

rating

Качество: HDTVRip
Формат: AVI
Видео: 720х400 (16:9), 25.000 fps, XviD, 1542 Kbps, 0.21 Bits/Pixel
Аудио: 48 kHz, AC3 Dolby Digital, 2 ch, 192 Kbps
Субтитры: Отсутствуют
General
Complete name : Downloads\P0dB0dHaya.l0dka.01.SDI
Format : AVI
Format/Info : Audio Video Interleave
File size : 751 MiB
Duration : 1h 0mn
Overall bit rate : 1 744 Kbps
Writing application : VirtualDubMod 1.5.10.3 | www.virtualdub-fr.org || (build 2550/release)
Original source form/Name : TV Series
Video #0
ID : 0
Format : MPEG-4 Visual
Format profile : Advanced Simple@L5
Format settings, BVOP : 2
Format settings, QPel : No
Format settings, GMC : No warppoints
Format settings, Matrix : Default (H.263)
Codec ID : XVID
Codec ID/Hint : XviD
Duration : 1h 0mn
Bit rate : 1 542 Kbps
Width : 720 pixels
Height : 400 pixels
Display aspect ratio : 16:9
Frame rate : 25.000 fps
Color space : YUV
Chroma subsampling : 4:2:0
Bit depth : 8 bits
Scan type : Progressive
Compression mode : Lossy
Bits/(Pixel*Frame) : 0.214
Stream size : 664 MiB (88%)
Writing library : XviD 1.2.1 (UTC 2008-12-04)
Audio #1
ID : 1
Format : AC-3
Format/Info : Audio Coding 3
Mode extension : CM (complete main)
Format settings, Endianness : Big
Codec ID : 2000
Duration : 1h 0mn
Bit rate mode : Constant
Bit rate : 192 Kbps
Channel(s) : 2 channels
Channel positions : Front: L R
Sampling rate : 48.0 KHz
Bit depth : 16 bits
Compression mode : Lossy
Stream size : 82.7 MiB (11%)
Alignment : Split accross interleaves
Interleave, duration : 40 ms (1.00 video frame)
Interleave, preload duration : 500 ms
скриншот  скриншот  скриншот  
pb.wtf



Скачать Подводная лодка через торрент http://linkme.ufanet.ru/box/400x500/cfd831d5a5a7c8c3910cdfe5fc6b37b8.jpg Скачать фильм Подводная лодка через торрент бесплантно в хорошем качестве Описание: По сюжету действия происходят в 1942 году через несколько месяцев после событий, когда союзникам удалось разгадать код ... 8.2 10 5
Торрент: Зарегистрирован [2019-02-01 22:24] · скачан: 253 раз
Статус: √ проверено
Размер: 5.78 GB
Как cкачать? Как скачать Подводная лодка через торрент | qTorrent

% Раздел Тема Автор DL S | L
Зарубежные сериалы [ 25.71 GB ] Подводная лодка / Das Boot / Сезон: 2 / Серии: 1-8 из 8 [2020 Военный WEB-DL 1080p] MVO [SDI Media] bober100 Скачать
1 | 0
Зарубежные сериалы [ 7.31 GB ] Подводная лодка / Das Boot / Сезон: 2 / Серии: 1-8 из 8 [2020 Военный WEB-DLRip] MVO [SDI Media] bober100 Скачать
2 | 0
Зарубежные сериалы [ 36.23 GB ] Подводная лодка / Das Boot / Сезон: 1 / Серии: 1-8 из 8 [2018 Военный BDRip 1080p] MVO [TVShows] bober100 Скачать
1 | 0
Зарубежные сериалы [ 18.72 GB ] Подводная лодка / Das Boot / Сезон: 1 / Серии: 1-8 из 8 [2018 Военный BDRip 720p] MVO [TVShows] bober100 Скачать
2 | 0

28-11-2019 20:33  

Отключить всю рекламу на сайте

    Дорогой пользователь! Огромная просьба, поблагодарите релизера, оцените раздачу и оставьте свои комментарий, если Вы скачали Подводная лодка через торрент бесплатно! Внесите свою лепту в развитие PiratBit!
    Комментировать посты могут только пользователи прошедшие не сложную регистрацию
    Показать сообщения:    

    Подводная лодка через торрент
    Скачать бесплатно Подводная лодка
    Подводная лодка скачать торрент
    Подводная лодка смотреть онлайн
    Cкачать фильм Подводная лодка бесплатно
    Подводная лодка скачать торрент в хорошем качестве
    Подводная лодка смотреть онлайн бесплатно в хорошем качестве


    Вы не можете начинать темы
    Вы не можете отвечать на сообщения
    Вы не можете редактировать свои сообщения
    Вы не можете удалять свои сообщения
    Вы не можете голосовать в опросах
    Вы не можете прикреплять файлы к сообщениям
    Вы можете скачивать файлы