Ссылка на приватное зеркало нашего сайта всего за 1$. Внимание количество ограничено!!!

2 сезон

iTunes

1 сезон

1

2 сезон

2 сезон

iTunes

1 сезон

RePack

30

Ultimate

ВАЖНО

ИГРА 18+

pack

RePack

MK11
pack

Забери бонус

RePack

jed

!!Акция!!

Alien_Rage

RePack

fifa19

RePack

Assassins Creed: Odyssey

RePack

NEED FOR SPEED™ PAYBACK

4 сезон

9 сезон

Бесстыжие 9 сезон

Все сериалы

все сериалы на PB.wtf

RePack

FAR CRY 5
  

Расцвет / Цветение / Bloom / Сезон: 1 / Серии: 1-6 из 6 (Джон Кёрран, Мат Кинг) [2019, драма, детектив, фантастика, WEB-DLRip] MVO [AlexFilm] pb.wtf

Расцвет через торрент pb.wtf

Размер: 3.36 GB | Добавлен: 1 год 10 мес. назад | Торрент скачан:34 раза
Скачать  

02-02-2019 03:47 Расцвет Скачать торрент  

Расцвет / Цветение / Bloom Год выпуска: 2019
Страна: Австралия
Жанр: драма, детектив, фантастика
Продолжительность: ~00:52:00
Перевод: Профессиональный (многоголосый закадровый) | AlexFilm
Субтитры: нет

Режиссер: Джон Кёрран, Мат Кинг

В ролях:

Брайан Браун, Фиби Тонкин, Райан Корр, Никки Шилз, Род Муллинар, Энн Беннетт, Терри Норрис, Thomas Fisher, Tessa Rose, Женевьева Моррис и др.

Описание:

Действие сериала разворачивается в небольшом австралийском городке. Прошел год с того дня, как страшное наводнение унесло жизни пяти жителей, как вдруг здесь появился новый, таинственный цветок, дарящий людям молодость. Однако, в погоне за ним, придется провести серьезную переоценку ценностей и понять, что же на самом деле главное.

Релиз:

Перевод: Наталья Земина
Монтаж и сведение звука: Михаил Шорыгин
Роли озвучивали:

Татьяна Манетина
Екатерина Муравицкая
Кирилл Патрино
Алексей Гнеушев
Дмитрий Лунев
Михаил Федосеев

Сэмпл: http://sendfile.su/1472624


Качество: WEB-DLRip
Формат: AVI

Видео: 704x352, 25 fps, XviD, ~1370 (1700 - первый эпизод) kbps avg, 0.275 bit/pixel
Аудио Rus: 48 kHz, MPEG Layer 3, 2 ch, ~128.00 kbps avg
Аудио Eng: 48 kHz, MPEG Layer 3, 2 ch, ~128.00 kbps avg


Реклама: аудио (два раза, в начале 10 и в конце 10 сек.)


скриншот  скриншот  скриншот  скриншот  
Формат : AVI
Формат/Информация : Audio Video Interleave
Размер файла : 738 Мбайт
Продолжительность : 52 м. 13 с.
Общий поток : 1976 Кбит/сек
Название фильма : Bloom 1x01 @ AlexFilm
Программа кодирования : VirtualDubMod 1.5.10.2 (build 2540/release)
Библиотека кодирования : VirtualDubMod build 2540/release

Видео
Идентификатор : 0
Формат : MPEG-4 Visual
Профиль формата : Advanced Simple@L5
Параметр BVOP формата : Нет
Параметр QPel формата : Нет
Параметр GMC формата : Без точки перехода
Параметр матрицы формата : Default (MPEG)
Идентификатор кодека : XVID
Идентификатор кодека/Подсказка : XviD
Продолжительность : 52 м. 13 с.
Битрейт : 1705 Кбит/сек
Ширина : 704 пикселя
Высота : 352 пикселя
Соотношение сторон : 2,000
Частота кадров : 25,000 кадров/сек
Цветовое пространство : YUV
Субдискретизация насыщенности : 4:2:0
Битовая глубина : 8 бит
Тип развёртки : Прогрессивная
Метод сжатия : С потерями
Бит/(Пиксели*Кадры) : 0.275
Размер потока : 637 Мбайт (86%)
Библиотека кодирования : XviD 67

Аудио #1
Идентификатор : 1
Формат : MPEG Audio
Версия формата : Version 1
Профиль формата : Layer 3
Режим : Joint stereo
Расширение режима : MS Stereo
Идентификатор кодека : 55
Идентификатор кодека/Подсказка : MP3
Продолжительность : 52 м. 13 с.
Вид битрейта : Постоянный
Битрейт : 128 Кбит/сек
Каналы : 2 канала
Частота : 48,0 КГц
Метод сжатия : С потерями
Размер потока : 47,8 Мбайт (6%)
Выравнивание : Соединение по промежуткам
Продолжительность промежутка : 40 мс. (1,00 видеокадр)
Время предзагрузки промежутка : 504 мс.
Заголовок : Russian (AlexFilm)

Аудио #2
Идентификатор : 2
Формат : MPEG Audio
Версия формата : Version 1
Профиль формата : Layer 3
Режим : Joint stereo
Расширение режима : MS Stereo
Идентификатор кодека : 55
Идентификатор кодека/Подсказка : MP3
Продолжительность : 52 м. 13 с.
Вид битрейта : Постоянный
Битрейт : 128 Кбит/сек
Каналы : 2 канала
Частота : 48,0 КГц
Метод сжатия : С потерями
Размер потока : 47,8 Мбайт (6%)
Выравнивание : Соединение по промежуткам
Продолжительность промежутка : 40 мс. (1,00 видеокадр)
Время предзагрузки промежутка : 504 мс.
Заголовок : English
Внимание! Раздача ведётся путём добавления новых серий; при каждом добавлении создаётся новый торрент. Чтобы начать докачку новой серии, пользователям необходимо сделать следующее:
(1) остановить скачивание,
(2) удалить старый торрент у себя из клиента (старые серии удалять не надо),
(3) скачать новый торрент и запустить его у себя в клиенте вместо старого, при этом указать клиенту путь в старую папку куда и должно происходить скачивание новых серий.
Ваш клиент при этом должен произвести хеширование (проверку) старой папки (если не производит сам - помогите ему сделать это), и будет докачивать только те серии которых у вас ещё нет. Старые серии при этом не удаляются, а продолжают раздаваться!
Eсли вы уже удалили старые серии, то предотвратить повторную закачку старых серий можно, отжав галочку в соответствующих местах при запуске нового торрента. По возможности, желательно не удалять старые серии как можно дольше чтобы релизёр не столько продолжал раздавать старые серии, а смог сконцентрироваться на новых.
pb.wtf



Скачать Расцвет через торрент https://i106.fastpic.ru/big/2019/0201/34/e25e870284115445fa84b1ddc494c134.jpg Скачать фильм Расцвет через торрент бесплантно в хорошем качестве Описание: Действие сериала разворачивается в небольшом австралийском городке. Прошел год с того дня, как страшное наводнение унесло жизни ... 10 10 2
Торрент: Зарегистрирован [2019-02-02 03:47] · скачан: 34 раз
Статус: √ проверено
Размер: 3.36 GB
Как cкачать? Как скачать Расцвет через торрент | qTorrent

% Раздел Тема Автор DL S | L
Зарубежные сериалы [ 8.09 GB ] Расцвет / Цветение / Bloom / Сезон: 1 / Серии: 1-6 из 6 [2019 WEB-DL 720p] MVO [AlexFilm] bober100 Скачать
1 | 0
Зарубежные сериалы [ 3.22 GB ] Расцвет / Цветение / Bloom / Сезон: 1 / Серии 1- 6 из 6 [2019 WEB-DLRip] [MVO] killermax2013 Скачать
1 | 0
Зарубежные сериалы [ 8.22 GB ] Расцвет / Цветение / Bloom / Сезон: 1 / Серии 1- 6 из 6 [2019 WEB-DL 720p] [MVO] killermax2013 Скачать
1 | 0

28-11-2019 20:33  

Отключить всю рекламу на сайте

    Дорогой пользователь! Огромная просьба, поблагодарите релизера, оцените раздачу и оставьте свои комментарий, если Вы скачали Расцвет через торрент бесплатно! Внесите свою лепту в развитие PiratBit!
    Комментировать посты могут только пользователи прошедшие не сложную регистрацию
    Показать сообщения:    

    Расцвет через торрент
    Скачать бесплатно Расцвет
    Расцвет скачать торрент
    Расцвет смотреть онлайн
    Cкачать фильм Расцвет бесплатно
    Расцвет скачать торрент в хорошем качестве
    Расцвет смотреть онлайн бесплатно в хорошем качестве


    Вы не можете начинать темы
    Вы не можете отвечать на сообщения
    Вы не можете редактировать свои сообщения
    Вы не можете удалять свои сообщения
    Вы не можете голосовать в опросах
    Вы не можете прикреплять файлы к сообщениям
    Вы можете скачивать файлы