Ссылка на приватное зеркало нашего сайта всего за 1$. Внимание количество ограничено!!!

2 сезон

iTunes

1 сезон

1

2 сезон

2 сезон

iTunes

1 сезон

RePack

30

Новинка

ВАЖНО

ИГРА 18+

pack

RePack

MK11
pack

Забери бонус

RePack

jed

!!Акция!!

Alien_Rage

RePack

fifa19

RePack

Assassins Creed: Odyssey

RePack

NEED FOR SPEED™ PAYBACK

4 сезон

9 сезон

Бесстыжие 9 сезон

Все сериалы

все сериалы на PB.wtf

RePack

FAR CRY 5
  

Йеллоустоун / Yellowstone / Сезон: 1 / Серии: 1-9 из 9 (Тейлор Шеридан, Стефен Т. Кэй) [2018, Драма, вестерн, WEBRip] MVO [TVShows] pb.wtf

Йеллоустоун через торрент pb.wtf

Размер: 7.19 GB | Добавлен: 1 год 9 мес. назад | Торрент скачан:109 раз
Скачать  

02-02-2019 04:16 Йеллоустоун Скачать торрент  

Йеллоустоун | Yellowstone Год выпуска: 2018
Страна: США
Жанр: драма, вестерн
Продолжительность: ~ 00:50:00
Перевод: Профессиональный (многоголосый закадровый) | TVShows
Субтитры: нет

Режиссёр: Тейлор Шеридан, Стефен Т. Кэй

rating


В ролях:

Кевин Костнер, Люк Граймс, Келли Райлли, Уэс Бентли, Коул Хаузер, Келси Эсбиль, Брекен Мэрилл, Джефферсон Уайт, Дэйв Эннэйбл, Дэнни Хьюстон, Джил Бирмингем, Венди Мониз, Майкл Нури, Аттикус Тодд, Джилл Хеннесси, Фредрик Лене, Тимоти Кархарт, Джош Лукас, Гретхен Мол и др.

Описание:

Йеллоустон — первый в мире национальный парк, одно из самих посещаемых мест в США. Но здесь, на границе цивилизации, происходит много такого, чего не видят туристы, что не освещается средствами массовой информации. Семья Даттон, главой которой является Джон Даттон, владеет огромным ранчо, сопредельным с территорией парка. На их землю претендует и сам парк, и индейская резервация, и жадные застройщики.

Качество: WEBRip
Формат: AVI

Видео: XVID, 704x352, 23.976 fps, ~2000 kbps avg, ~0.33 bit/pixel
Аудио Rus: AC3, 48.0 KHz, 2 channels, 192 kbps
General
Complete name : G:\Йеллоустоун (Сезон 1) TVShows\Yellowstone.S01E01.WEBRip.RGzsRutracker.Celta88.avi
Format : AVI
Format/Info : Audio Video Interleave
File size : 1.43 GiB
Duration : 1 h 32 min
Overall bit rate : 2 201 kb/s
Writing application : VirtualDubMod 1.5.10.3 | www.virtualdub-fr.org || (build 2550/release)
Writing library : VirtualDubMod build 2550/release

Video
ID : 0
Format : MPEG-4 Visual
Format profile : Advanced Simple@L5
Format settings, BVOP : 1
Format settings, QPel : No
Format settings, GMC : No warppoints
Format settings, Matrix : Custom
Codec ID : XVID
Codec ID/Hint : XviD
Duration : 1 h 32 min
Bit rate : 2 000 kb/s
Width : 704 pixels
Height : 352 pixels
Display aspect ratio : 2.000
Frame rate : 23.976 (24000/1001) FPS
Color space : YUV
Chroma subsampling : 4:2:0
Bit depth : 8 bits
Scan type : Progressive
Compression mode : Lossy
Bits/(Pixel*Frame) : 0.337
Stream size : 1.30 GiB (91%)
Writing library : XviD 73

Audio
ID : 1
Format : AC-3
Format/Info : Audio Coding 3
Mode extension : CM (complete main)
Format settings, Endianness : Big
Codec ID : 2000
Duration : 1 h 32 min
Bit rate mode : Constant
Bit rate : 192 kb/s
Channel(s) : 2 channels
Channel positions : Front: L R
Sampling rate : 48.0 kHz
Frame rate : 31.250 FPS (1536 spf)
Bit depth : 16 bits
Compression mode : Lossy
Stream size : 127 MiB (9%)
Alignment : Split accross interleaves
Interleave, duration : 42 ms (1.00 video frame)
Interleave, preload duratio : 500 ms
скриншот  скриншот  скриншот  скриншот  скриншот  
pb.wtf



Скачать Йеллоустоун через торрент http://i106.fastpic.ru/big/2018/1113/67/94a566d92773c9b793fb1fd50543e467.png Скачать фильм Йеллоустоун через торрент бесплантно в хорошем качестве Описание: Йеллоустон — первый в мире национальный парк, одно из самих посещаемых мест в США. Но здесь, на границе цивилизации, происходит ... 10 10 6
Торрент: Зарегистрирован [2019-02-02 04:16] · скачан: 109 раз
Статус: √ проверено
Размер: 7.19 GB
Как cкачать? Как скачать Йеллоустоун через торрент | qTorrent

% Раздел Тема Автор DL S | L
Зарубежные сериалы [ 11.86 GB ] Йеллоустоун / Yellowstone / Сезон: 1 / Серии: 1-9 из 9 [2018 HDRip-AVC] [DVO] killermax2013 Скачать
2 | 0
Зарубежные сериалы [ 33.35 GB ] Йеллоустоун / Yellowstone / Сезон: 1 / Серии: 1-9 из 9 [2018 WEBRip 1080p] [MVO] killermax2013 Скачать
1 | 0
Зарубежные сериалы [ 10.67 GB ] Йеллоустоун / Yellowstone / Сезон: 1 / Серии: 1-9 из 9 [2018 WEB-DL 720p] MVO [NewStudio] bober100 Скачать
1 | 0
Зарубежные сериалы [ 9 GB ] Йеллоустоун / Yellowstone / Сезон: 1 / Серии: 1-9 из 9 [2018 WEBRip 720p] MVO [LostFilm] bober100 Скачать
2 | 0
Зарубежные сериалы [ 21.19 GB ] Йеллоустоун / Yellowstone / Сезон: 1 / Серии: 1-9 из 9 [2018 BDRip 1080p] MVO [LostFilm] bober100 Скачать
1 | 0
Зарубежные сериалы [ 24.44 GB ] Йеллоустоун / Yellowstone / Сезон: 1 / Серии: 1-9 из 9 [2018 WEBRip 1080p] MVO [TVShows] bober100 Скачать
1 | 0

28-11-2019 20:33  

Отключить всю рекламу на сайте

    Дорогой пользователь! Огромная просьба, поблагодарите релизера, оцените раздачу и оставьте свои комментарий, если Вы скачали Йеллоустоун через торрент бесплатно! Внесите свою лепту в развитие PiratBit!
    Комментировать посты могут только пользователи прошедшие не сложную регистрацию
    Показать сообщения:    

    Йеллоустоун через торрент
    Скачать бесплатно Йеллоустоун
    Йеллоустоун скачать торрент
    Йеллоустоун смотреть онлайн
    Cкачать фильм Йеллоустоун бесплатно
    Йеллоустоун скачать торрент в хорошем качестве
    Йеллоустоун смотреть онлайн бесплатно в хорошем качестве


    Вы не можете начинать темы
    Вы не можете отвечать на сообщения
    Вы не можете редактировать свои сообщения
    Вы не можете удалять свои сообщения
    Вы не можете голосовать в опросах
    Вы не можете прикреплять файлы к сообщениям
    Вы можете скачивать файлы