Ссылка на приватное зеркало всего за 1$. Внимание количество ограничено!!!

OK

1+1

iTunes

мы

OK

1

WEB-DLRip

Джокер

Пифагор

Ведьмак / The Witcher сериал

Лицензия

ПШазам

ОК

Оно 2

iTunes

30
pack

Вам бонус

ВАЖНО

!!Акция!!

Alien_RageХит недели

RePack

Resident Evil 21

ИГРА 18+

pack

RePack

jed

RePack

fifa19

RePack

Assassins Creed: Odyssey

RePack

NEED FOR SPEED™ PAYBACK

4 сезон

9 сезон

Бесстыжие 9 сезон

Все сериалы

все сериалы на PB.wtf

RePack

FAR CRY 5
  

Мунафик 2 / Munafik 2 (Сямсул Юсоф) [2018, ужасы, WEB-DL 720p] MVO [КОЛОБОК] pb.wtf

Мунафик 2 через торрент pb.wtf

Размер: 3.48 GB | Добавлен: 11 мес. назад | Торрент скачан:34 раза
Скачать  

02-02-2019 06:42 Мунафик 2 Скачать торрент  

Мунафик 2 / Munafik 2Год выпуска: 2018
Страна: Малайзия
Жанр: ужасы
Продолжительность: 01:40:58
Перевод: Любительский (многоголосый) | КОЛОБОК
Субтитры: отсутствуют

Режиссер: Сямсул Юсоф

rating

В ролях:

Сямсул Юсоф, Майя Карин, Насир Билал Кхан, Физз Файруз, Фаузи Хавави, Рахим Разали, Ку Фарида, Нур Зара София, Вени Панка

Описание:

Устаз Адам должен помочь другу, чья деревня испорчена группой дезинформированных религиозных деятелей во главе со зловещим колдуном. Что еще хуже, самого Адама таинственно преследуют злые видения, которые время от времени беспокоят его.

Качество: WEB-DL 720p
Формат: MKV

Видео: h.264,4 549 Кбит/с, 1280x544
Аудио#1: Русский, (AC3, 2 ch, 384 Кбит/с)
скриншот  скриншот  скриншот  

Общее
Уникальный идентификатор : 211928908006184126129670617992515434938 (0x9F7005E36569A2EFA74E60F1EC0239BA)
Полное имя : D:\Munafik.2.2018.Pk.WEB-DL.72Op.mkv
Формат : Matroska
Версия формата : Version 2
Размер файла : 3,48 Гбайт
Продолжительность : 1 ч. 40 м.
Режим общего битрейта : Переменный
Общий поток : 4935 Кбит/сек
Дата кодирования : UTC 2019-02-01 21:05:05
Программа кодирования : mkvmerge v8.3.0 ('Over the Horizon') 64bit
Библиотека кодирования : libebml v1.3.1 + libmatroska v1.4.2

Видео
Идентификатор : 1
Формат : AVC
Формат/Информация : Advanced Video Codec
Профиль формата : High@L4.1
Параметр CABAC формата : Да
Параметр RefFrames формата : 4 кадра
Идентификатор кодека : V_MPEG4/ISO/AVC
Продолжительность : 1 ч. 40 м.
Вид битрейта : Переменный
Битрейт : 4549 Кбит/сек
Максимальный битрейт : 5000 Кбит/сек
Ширина : 1280 пикселей
Высота : 544 пикселя
Соотношение сторон : 2,35:1
Режим частоты кадров : Постоянный
Частота кадров : 23,976 (24000/1001) кадра/сек
Стандарт вещания : Component
Цветовое пространство : YUV
Субдискретизация насыщенности : 4:2:0
Битовая глубина : 8 бит
Тип развёртки : Прогрессивная
Бит/(Пиксели*Кадры) : 0.267
Размер потока : 3,14 Гбайт (90%)
Default : Да
Forced : Нет
Цветовой диапазон : Limited
Основные цвета : BT.709
Характеристики трансфера : BT.709
Коэффициенты матрицы : BT.709

Аудио
Идентификатор : 2
Формат : AC-3
Формат/Информация : Audio Coding 3
Расширение режима : CM (complete main)
Параметр Endianness формата : Big
Идентификатор кодека : A_AC3
Продолжительность : 1 ч. 40 м.
Вид битрейта : Постоянный
Битрейт : 384 Кбит/сек
Каналы : 2 канала
Расположение каналов : Front: L R
Частота : 48,0 КГц
Частота кадров : 31,250 кадров/сек (1536 spf)
Метод сжатия : С потерями
Размер потока : 277 Мбайт (8%)
Default : Да
Forced : Нет

pb.wtf



Скачать Мунафик 2 через торрент https://d.radikal.ru/d37/1902/f5/662969906bb8.jpg Скачать фильм Мунафик 2 через торрент бесплантно в хорошем качестве Описание: Устаз Адам должен помочь другу, чья деревня испорчена группой дезинформированных религиозных деятелей во главе со зловещим ... 10 10 3
Торрент: Зарегистрирован [2019-02-02 06:42] · скачан: 34 раз
Статус: T временная
Размер: 3.48 GB
Как cкачать? Как скачать Мунафик 2 через торрент | qTorrent

% Раздел Тема Автор DL S | L
T Фильмы (мультфильмы) cо спонсором показа (Новинки AVI/MKV) [ 1.37 GB ] Мунафик 2 / Munafik 2 [2018 WEB-DLRip] MVO [КОЛОБОК] bober100 Скачать
1 | 0

28-11-2019 20:33  

Отключить всю рекламу на сайте

02-02-2019 08:58 Мунафик 2 Скачать торрент  

Рейтинг 7,6... Серьёзно?!pb.wtf



06-02-2019 10:40 Мунафик 2 Скачать торрент  

Фильм!?...Нунафиг!?pb.wtf



    Дорогой пользователь! Огромная просьба, поблагодарите релизера, оцените раздачу и оставьте свои комментарий, если Вы скачали Мунафик 2 через торрент бесплатно! Внесите свою лепту в развитие PiratBit!
    Комментировать посты могут только пользователи прошедшие не сложную регистрацию
    Показать сообщения:    

    Мунафик 2 через торрент
    Скачать бесплатно Мунафик 2
    Мунафик 2 скачать торрент
    Мунафик 2 смотреть онлайн
    Cкачать фильм Мунафик 2 бесплатно
    Мунафик 2 скачать торрент в хорошем качестве
    Мунафик 2 смотреть онлайн бесплатно в хорошем качестве


    Вы не можете начинать темы
    Вы не можете отвечать на сообщения
    Вы не можете редактировать свои сообщения
    Вы не можете удалять свои сообщения
    Вы не можете голосовать в опросах
    Вы не можете прикреплять файлы к сообщениям
    Вы можете скачивать файлы