Ссылка на приватное зеркало всего за 1$. Внимание количество ограничено!!!

OK

1+1

iTunes

мы

OK

1

WEB-DLRip

Джокер

Пифагор

Ведьмак / The Witcher сериал

iTunes

ПШазам

ОК

Оно 2

iTunes

30
pack

Вам бонус

ВАЖНО

!!Акция!!

Alien_RageХит недели

RePack

Resident Evil 21

ИГРА 18+

pack

RePack

jed

RePack

fifa19

RePack

Assassins Creed: Odyssey

RePack

NEED FOR SPEED™ PAYBACK

4 сезон

9 сезон

Бесстыжие 9 сезон

Все сериалы

все сериалы на PB.wtf

RePack

FAR CRY 5
  

Наша история / All of You (Дэн Виллегас) [2017, Мелодрама, драма, WEB-DL 720p] MVO [AlphaProject] pb.wtf

Наша история через торрент pb.wtf

Размер: 4.08 GB | Добавлен: 11 мес. назад | Торрент скачан:9 раз
Скачать  

02-02-2019 09:45 Наша история Скачать торрент  

Наша история / All of YouГод выпуска: 2017
Страна: Филиппины
Жанр: Мелодрама, драма
Продолжительность: 01:44:36
Перевод: Любительский (многоголосый) | AlphaProject
Субтитры: отсутствуют

Режиссер: Дэн Виллегас

rating

В ролях:

Дженнылин Меркадо, Дерек Рамсей, Яё Агила, Кин Сиприано, Нико Антонио, Энцо Маркос, Виа Антонио, Ханна Ладесма

Описание:

Девушка и парень с одинаковыми именами знакомятся в приложении для знакомств. Встретившись, они понимают, что их свела сама судьба. После трех лет отношений приходит горькое осознание того, что у них нет никакого будущего. Смогут ли герои одолеть трудности на своем пути и жить долго и счастливо?

Качество: WEB-DL 720p
Формат: MKV

Видео: h.264,5 195 kb/s, 1280x534
Аудио#1: Русский, (AC3, 2 ch, 384 Кбит/с)
скриншот  скриншот  скриншот  

Общее
Уникальный идентификатор : 188907413596735104101409747849256720169 (0x8E1E3E94AFA37E08ACA97FE794E15729)
Полное имя : D:\All.of.You.2017.Pa.WEB-DL.72Op_KOSHARA.mkv
Формат : Matroska
Версия формата : Version 2
Размер файла : 4,08 Гбайт
Продолжительность : 1 ч. 44 м.
Режим общего битрейта : Переменный
Общий поток : 5581 Кбит/сек
Дата кодирования : UTC 2019-02-01 18:14:00
Программа кодирования : mkvmerge v8.3.0 ('Over the Horizon') 64bit
Библиотека кодирования : libebml v1.3.1 + libmatroska v1.4.2

Видео
Идентификатор : 1
Формат : AVC
Формат/Информация : Advanced Video Codec
Профиль формата : High@L4.1
Параметр CABAC формата : Да
Параметр RefFrames формата : 4 кадра
Идентификатор кодека : V_MPEG4/ISO/AVC
Продолжительность : 1 ч. 44 м.
Вид битрейта : Переменный
Битрейт : 5195 Кбит/сек
Максимальный битрейт : 6000 Кбит/сек
Ширина : 1280 пикселей
Высота : 534 пикселя
Соотношение сторон : 2,40:1
Режим частоты кадров : Постоянный
Частота кадров : 23,976 (24000/1001) кадра/сек
Стандарт вещания : Component
Цветовое пространство : YUV
Субдискретизация насыщенности : 4:2:0
Битовая глубина : 8 бит
Тип развёртки : Прогрессивная
Бит/(Пиксели*Кадры) : 0.310
Размер потока : 3,72 Гбайт (91%)
Default : Да
Forced : Нет
Цветовой диапазон : Limited
Основные цвета : BT.709
Характеристики трансфера : BT.709
Коэффициенты матрицы : BT.709

Аудио
Идентификатор : 2
Формат : AC-3
Формат/Информация : Audio Coding 3
Расширение режима : CM (complete main)
Параметр Endianness формата : Big
Идентификатор кодека : A_AC3
Продолжительность : 1 ч. 44 м.
Вид битрейта : Постоянный
Битрейт : 384 Кбит/сек
Каналы : 2 канала
Расположение каналов : Front: L R
Частота : 48,0 КГц
Частота кадров : 31,250 кадров/сек (1536 spf)
Метод сжатия : С потерями
Размер потока : 287 Мбайт (7%)
Default : Да
Forced : Нет

pb.wtf



Скачать Наша история через торрент https://a.radikal.ru/a21/1902/1d/afed77bea3d1.jpg Скачать фильм Наша история через торрент бесплантно в хорошем качестве Описание: Девушка и парень с одинаковыми именами знакомятся в приложении для знакомств. Встретившись, они понимают, что их свела сама ... 10 10 2
Торрент: Зарегистрирован [2019-02-02 09:45] · скачан: 9 раз
Статус: T временная
Размер: 4.08 GB
Как cкачать? Как скачать Наша история через торрент | qTorrent

% Раздел Тема Автор DL S | L
T Фильмы (мультфильмы) cо спонсором показа (Новинки AVI/MKV) [ 1.37 GB ] Наша история / All of You [2017 Мело WEB-DLRip] MVO [AlphaProject] bober100 Скачать
1 | 0

28-11-2019 20:33  

Отключить всю рекламу на сайте

    Дорогой пользователь! Огромная просьба, поблагодарите релизера, оцените раздачу и оставьте свои комментарий, если Вы скачали Наша история через торрент бесплатно! Внесите свою лепту в развитие PiratBit!
    Комментировать посты могут только пользователи прошедшие не сложную регистрацию
    Показать сообщения:    

    Наша история через торрент
    Скачать бесплатно Наша история
    Наша история скачать торрент
    Наша история смотреть онлайн
    Cкачать фильм Наша история бесплатно
    Наша история скачать торрент в хорошем качестве
    Наша история смотреть онлайн бесплатно в хорошем качестве


    Вы не можете начинать темы
    Вы не можете отвечать на сообщения
    Вы не можете редактировать свои сообщения
    Вы не можете удалять свои сообщения
    Вы не можете голосовать в опросах
    Вы не можете прикреплять файлы к сообщениям
    Вы можете скачивать файлы