Всегда рабочее зеркало без VPN и Proxy просто перед .vidak.icu напиши любое слово или цифру, Пример http://dezs.vidak.icu

MVO

MVO

1 сезон

1

1 сезон

iTunes

1 сезон

13

1 сезон

Deluxe

pack

Рекомендуем

Repack

30

ВАЖНО

RePack

MK11

RePack

jed

RePack

fifa19

RePack

RDR2

RePack

NEED FOR SPEED™ PAYBACK

Кинопоиск HD

6 сезон

 Острые козырьки 6 сезон

Все сериалы

все сериалы на PB.wtf

RePack

FAR CRY 5
  
Magnet ссылка

Девушка, которая застряла в паутине / The Girl in the Spider's Web (Федерико Альварес) [2018, триллер, драма, криминал, UHD BDRemux 2160p] DUB (rus, ukr) [Лицензия] pb.wtf

Девушка, которая застряла в паутине через торрент pb.wtf

Размер: 48.9 GB | Добавлен: 3 года 5 мес. назад | Торрент скачан:26 раз
Смотреть онлайн Девушка, которая застряла в паутине | Скачать    Ребята, помогите собрать деньги на оплату серверов!!!

02-02-2019 11:00 Девушка, которая застряла в паутине Скачать торрент  

Девушка, которая застряла в паутине / The Girl in the Spider's Web
Год выпуска: 2018
Страна: Великобритания, Германия, Швеция, Канада, США
Жанр: триллер, драма, криминал
Продолжительность: 01:55:25
Перевод: Дублированный | Лицензия
Субтитры: Русские (Forced, full), украинские (Full), английские

Режиссер: Федерико Альварес

rating

В ролях:

Клер Фой (Lisbeth Salander), Сверрир Гуднасон (Mikael Blomkvist), Бо Гадсдон (Young Lisbeth Salander), Лакит Стэнфилд (Ed Needham), Сильвия Хукс (Camilla Salander), Карлотта фон Фалькенхайн (Young Camilla Salander), Стивен Мерчант (Frans Balder), Кристофер Конвери (August Balder), Клас Банг (Jan Holtser), Сюннёве Макоди Лунд (Gabriella Grane), Камерон Бриттон (Plague), Вики Крипс (Erika Berger)
Описание:

Хакер Лисбет Саландер и журналист Микаэль Блумквист оказываются втянуты в историю с участием шпионов, киберпреступников и коррумпированных чиновников.

Качество: UHD BDRemux 2160p
Формат: MKV

Видео: MPEG-H HEVC HDR Video, 3840x2160, 54100 Kbit/s, 23.976 fps
Аудио#1: 48 kHz, AC3, 5.1, 640 Kbps | Дублированный | RUS |
Аудио#2: 48 kHz, AC3, 2.0, 640 Kbps | Дублированный | UKR |
Аудио#3: 48 kHz, TrueHD, 7.1, 4529 Kbps | Оригинал | ENG |
Аудио#4: 48 kHz, AC3, 5.1, 640 Kbps | Оригинал | ENG |
скриншот  скриншот  скриншот  скриншот  скриншот  

General
Unique ID : 330376159077472411495301585085224836470 (0xF88C223E9CDC24D2C993A256F79DDD76)
Complete name : D:Video111The.Girl.in.the.Spiders.Web.2018.Lic.BDREMUX.2160p.HDR.seleZen.mkv
Format : Matroska
Format version : Version 4
File size : 48.9 GiB
Duration : 1 h 55 min
Overall bit rate mode : Variable
Overall bit rate : 60.7 Mb/s
Movie name : The Girl in the Spider's Web 2018 from селезень
Encoded date : UTC 2019-03-02 00:50:48
Writing application : mkvmerge v31.0.0 ('Dolores In A Shoestand') 64-bit
Writing library : libebml v1.3.6 + libmatroska v1.4.9

Video
ID : 1
Format : HEVC
Format/Info : High Efficiency Video Coding
Commercial name : HDR10
Format profile : Main [email protected]@High
Codec ID : V_MPEGH/ISO/HEVC
Duration : 1 h 55 min
Bit rate : 54.1 Mb/s
Width : 3 840 pixels
Height : 2 160 pixels
Display aspect ratio : 16:9
Frame rate mode : Constant
Frame rate : 23.976 (24000/1001) FPS
Color space : YUV
Chroma subsampling : 4:2:0 (Type 2)
Bit depth : 10 bits
Bits/(Pixel*Frame) : 0.272
Stream size : 43.6 GiB (89%)
Language : English
Default : Yes
Forced : No
Color range : Limited
Color primaries : BT.2020
Transfer characteristics : PQ
Matrix coefficients : BT.2020 non-constant
Mastering display color pri : Display P3
Mastering display luminance : min: 0.0050 cd/m2, max: 4000 cd/m2
Maximum Content Light Level : 3894 cd/m2
Maximum Frame-Average Light : 996 cd/m2

Audio #1
ID : 2
Format : AC-3
Format/Info : Audio Coding 3
Commercial name : Dolby Digital
Codec ID : A_AC3
Duration : 1 h 55 min
Bit rate mode : Constant
Bit rate : 640 kb/s
Channel(s) : 6 channels
Channel layout : L R C LFE Ls Rs
Sampling rate : 48.0 kHz
Frame rate : 31.250 FPS (1536 SPF)
Bit depth : 16 bits
Compression mode : Lossy
Stream size : 528 MiB (1%)
Title : Dub [License]
Language : Russian
Service kind : Complete Main
Default : Yes
Forced : Yes

Audio #2
ID : 3
Format : AC-3
Format/Info : Audio Coding 3
Commercial name : Dolby Digital
Codec ID : A_AC3
Duration : 1 h 55 min
Bit rate mode : Constant
Bit rate : 640 kb/s
Channel(s) : 6 channels
Channel layout : L R C LFE Ls Rs
Sampling rate : 48.0 kHz
Frame rate : 31.250 FPS (1536 SPF)
Bit depth : 16 bits
Compression mode : Lossy
Stream size : 528 MiB (1%)
Title : Dub [License]
Language : Ukrainian
Service kind : Complete Main
Default : No
Forced : No

Audio #3
ID : 4
Format : MLP FBA 16-ch
Format/Info : Meridian Lossless Packing FBA with 16-channel presentation
Commercial name : Dolby TrueHD with Dolby Atmos
Codec ID : A_TRUEHD
Duration : 1 h 55 min
Bit rate mode : Variable
Bit rate : 4 529 kb/s
Maximum bit rate : 7 839 kb/s
Channel(s) : 8 channels
Channel layout : L R C LFE Ls Rs Lb Rb
Sampling rate : 48.0 kHz
Frame rate : 1 200.000 FPS (40 SPF)
Compression mode : Lossless
Stream size : 3.65 GiB (7%)
Title : Original
Language : English
Default : No
Forced : No
Number of dynamic objects : 11
Bed channel count : 1 channel
Bed channel configuration : LFE

Audio #4
ID : 5
Format : AC-3
Format/Info : Audio Coding 3
Commercial name : Dolby Digital
Codec ID : A_AC3
Duration : 1 h 55 min
Bit rate mode : Constant
Bit rate : 640 kb/s
Channel(s) : 6 channels
Channel layout : L R C LFE Ls Rs
Sampling rate : 48.0 kHz
Frame rate : 31.250 FPS (1536 SPF)
Bit depth : 16 bits
Compression mode : Lossy
Stream size : 528 MiB (1%)
Language : English
Service kind : Complete Main
Default : No
Forced : No

Text #1
ID : 6
Format : UTF-8
Codec ID : S_TEXT/UTF8
Codec ID/Info : UTF-8 Plain Text
Duration : 1 h 51 min
Bit rate : 0 b/s
Count of elements : 14
Stream size : 732 Bytes (0%)
Title : Forced
Language : Russian
Default : Yes
Forced : Yes

Text #2
ID : 7
Format : UTF-8
Codec ID : S_TEXT/UTF8
Codec ID/Info : UTF-8 Plain Text
Duration : 1 h 53 min
Bit rate : 38 b/s
Count of elements : 731
Stream size : 32.0 KiB (0%)
Title : Full
Language : Russian
Default : No
Forced : No

Text #3
ID : 8
Format : UTF-8
Codec ID : S_TEXT/UTF8
Codec ID/Info : UTF-8 Plain Text
Duration : 1 h 53 min
Bit rate : 37 b/s
Count of elements : 693
Stream size : 31.0 KiB (0%)
Title : Full
Language : Ukrainian
Default : No
Forced : No

Text #4
ID : 9
Format : UTF-8
Codec ID : S_TEXT/UTF8
Codec ID/Info : UTF-8 Plain Text
Duration : 1 h 46 min
Bit rate : 24 b/s
Count of elements : 695
Stream size : 19.3 KiB (0%)
Title : Full
Language : English
Default : No
Forced : No

Menu
00:00:00.000 : :Глава 01
00:10:23.914 : :Глава 02
00:16:32.866 : :Глава 03
00:21:05.430 : :Глава 04
00:27:34.444 : :Глава 05
00:34:20.058 : :Глава 06
00:41:41.040 : :Глава 07
00:48:24.318 : :Глава 08
00:58:39.182 : :Глава 09
01:05:56.827 : :Глава 10
01:10:31.977 : :Глава 11
01:20:03.924 : :Глава 12
01:27:18.900 : :Глава 13
01:35:05.533 : :Глава 14
01:38:04.128 : :Глава 15
01:43:16.565 : :Глава 16

pb.wtf



Скачать Девушка, которая застряла в паутине через торрент http://img10.lostpic.net/2019/02/02/5d76ff79a59b43ffcf21773ae7518d32.jpg Скачать, смотреть онлайн Девушка, которая застряла в паутине бесплантно в хорошем качестве Описание: Хакер Лисбет Саландер и журналист Микаэль Блумквист оказываются втянуты в историю с участием шпионов, киберпреступников и ... 10 10 5
Торрент: Зарегистрирован [2019-03-02 01:36] · скачан: 26 раз
Статус: √ проверено
Размер: 48.9 GB
Как cкачать? Как скачать Девушка, которая застряла в паутине через торрент | UTorrent



Последний раз редактировалось: bober100 (2019-03-02 01:38), всего редактировалось 2 раз(а)

28-11-2019 20:33  

Отключить вcю реклaмy на сайте

    Дорогой пользователь! Огромная просьба, поблагодарите релизера, оцените раздачу и оставьте свои комментарий, если Вы скачали Девушка, которая застряла в паутине через торрент бесплатно!
    Комментировать посты могут только пользователи прошедшие не сложную регистрацию
    Показать сообщения:    

    Девушка, которая застряла в паутине через торрент
    Скачать бесплатно Девушка, которая застряла в паутине
    Девушка, которая застряла в паутине скачать торрент
    Девушка, которая застряла в паутине смотреть онлайн
    Cкачать фильм Девушка, которая застряла в паутине бесплатно
    Девушка, которая застряла в паутине скачать торрент в хорошем качестве
    Девушка, которая застряла в паутине смотреть онлайн бесплатно в хорошем качестве


    Вы не можете начинать темы
    Вы не можете отвечать на сообщения
    Вы не можете редактировать свои сообщения
    Вы не можете удалять свои сообщения
    Вы не можете голосовать в опросах
    Вы не можете прикреплять файлы к сообщениям
    Вы можете скачивать файлы