Ссылка на приватное зеркало всего за 1$. Внимание количество ограничено!!!

OK

1+1

iTunes

мы

OK

1

WEB-DLRip

Джокер

Пифагор

Ведьмак / The Witcher сериал

iTunes

ПШазам

ОК

Оно 2

iTunes

30
pack

Вам бонус

ВАЖНО

!!Акция!!

Alien_RageХит недели

RePack

Resident Evil 21

ИГРА 18+

pack

RePack

jed

RePack

fifa19

RePack

Assassins Creed: Odyssey

RePack

NEED FOR SPEED™ PAYBACK

4 сезон

9 сезон

Бесстыжие 9 сезон

Все сериалы

все сериалы на PB.wtf

RePack

FAR CRY 5
  

Двое не в том фильме / Zwei im falschen Film (Лаура Лакманн) [2017, Драма, мелодрама, комедия, WEB-DL 720p] MVO ["Синема УС"] pb.wtf

Двое не в том фильме через торрент pb.wtf

Раздают: 1 [ 0 KB/s ]
Размер: 3.81 GB | Добавлен: 11 мес. назад | Торрент скачан:39 раз
Скачать  

02-02-2019 12:17 Двое не в том фильме Скачать торрент  

Двое не в том фильме / Zwei im falschen FilmГод выпуска: 2017
Страна: Германия
Жанр: Драма, мелодрама, комедия
Продолжительность: 01:44:12
Перевод: Любительский (многоголосый) | "Синема УС"
Субтитры: отсутствуют

Режиссер: Лаура Лакманн

rating

В ролях:

Лаура Тонке, Марк Хоземанн, Давид Бредин, Катрин Вихман, Кристина Шорн, Ганс Лонго, Жозефина Восс, Себастьян Шварц, Дэвид Руланд, Феликс Госер

Описание:

Ханс и его подруга Хайнц, которую на самом деле зовут не так, вместе уже восемь лет. За это время в их отношения вкралась некая рутина: каждый вечер они проводят вместе на диване и играют в видеоигры. Когда они идут в кино по случаю своей годовщины, они понимают, что даже романтический фильм их не впечатляет из-за своей романтической атмосферы. Когда Ханс дает бывшему парню Хайнц ее номер, и при этом не устраивает сцены ревности, наконец становится ясно, что что-то должно измениться. Они составляют список романтических идеалов и пытаются воплотить их в жизнь...

Качество: WEB-DL 720p
Формат: MKV

Видео: h.264,4 848 Кбит/с, 1280x692
Аудио#1: Русский, (AC3, 2 ch, 384 Кбит/с)
скриншот  скриншот  скриншот  

Общее
Уникальный идентификатор : 203842249091173536406014015842970325791 (0x995A96D23EDFC6529B5D6E33DA11531F)
Полное имя : D:\Mission.Love. Zwei.im.falschen.Film.2O18.P.WEB-DL.72Op.mkv
Формат : Matroska
Версия формата : Version 2
Размер файла : 3,81 Гбайт
Продолжительность : 1 ч. 44 м.
Режим общего битрейта : Переменный
Общий поток : 5233 Кбит/сек
Дата кодирования : UTC 2019-02-01 17:24:14
Программа кодирования : mkvmerge v8.3.0 ('Over the Horizon') 64bit
Библиотека кодирования : libebml v1.3.1 + libmatroska v1.4.2

Видео
Идентификатор : 1
Формат : AVC
Формат/Информация : Advanced Video Codec
Профиль формата : High@L4.1
Параметр CABAC формата : Да
Параметр RefFrames формата : 4 кадра
Идентификатор кодека : V_MPEG4/ISO/AVC
Продолжительность : 1 ч. 44 м.
Вид битрейта : Переменный
Битрейт : 4848 Кбит/сек
Максимальный битрейт : 5500 Кбит/сек
Ширина : 1280 пикселей
Высота : 692 пикселя
Соотношение сторон : 1,85:1
Режим частоты кадров : Постоянный
Частота кадров : 23,976 (24000/1001) кадра/сек
Стандарт вещания : Component
Цветовое пространство : YUV
Субдискретизация насыщенности : 4:2:0
Битовая глубина : 8 бит
Тип развёртки : Прогрессивная
Бит/(Пиксели*Кадры) : 0.223
Размер потока : 3,45 Гбайт (91%)
Default : Да
Forced : Нет
Цветовой диапазон : Limited
Основные цвета : BT.709
Характеристики трансфера : BT.709
Коэффициенты матрицы : BT.709

Аудио
Идентификатор : 2
Формат : AC-3
Формат/Информация : Audio Coding 3
Расширение режима : CM (complete main)
Параметр Endianness формата : Big
Идентификатор кодека : A_AC3
Продолжительность : 1 ч. 44 м.
Вид битрейта : Постоянный
Битрейт : 384 Кбит/сек
Каналы : 2 канала
Расположение каналов : Front: L R
Частота : 48,0 КГц
Частота кадров : 31,250 кадров/сек (1536 spf)
Метод сжатия : С потерями
Размер потока : 286 Мбайт (7%)
Default : Да
Forced : Нет

pb.wtf



Скачать Двое не в том фильме через торрент https://b.radikal.ru/b07/1902/cd/2db8233aa0b8.jpg Скачать фильм Двое не в том фильме через торрент бесплантно в хорошем качестве Описание: Ханс и его подруга Хайнц, которую на самом деле зовут не так, вместе уже восемь лет. За это время в их отношения вкралась некая ... 10 10 3
Торрент: Зарегистрирован [2019-02-02 12:17] · скачан: 39 раз
Статус: T временная
Размер: 3.81 GB
Как cкачать? Как скачать Двое не в том фильме через торрент | qTorrent

% Раздел Тема Автор DL S | L
T Фильмы (мультфильмы) cо спонсором показа (Новинки AVI/MKV) [ 1.37 GB ] Двое не в том фильме / Zwei im falschen Film [2017 WEB-DLRip] MVO ["Синема УС"] bober100 Скачать
1 | 0

28-11-2019 20:33  

Отключить всю рекламу на сайте

    Дорогой пользователь! Огромная просьба, поблагодарите релизера, оцените раздачу и оставьте свои комментарий, если Вы скачали Двое не в том фильме через торрент бесплатно! Внесите свою лепту в развитие PiratBit!
    Комментировать посты могут только пользователи прошедшие не сложную регистрацию
    Показать сообщения:    

    Двое не в том фильме через торрент
    Скачать бесплатно Двое не в том фильме
    Двое не в том фильме скачать торрент
    Двое не в том фильме смотреть онлайн
    Cкачать фильм Двое не в том фильме бесплатно
    Двое не в том фильме скачать торрент в хорошем качестве
    Двое не в том фильме смотреть онлайн бесплатно в хорошем качестве


    Вы не можете начинать темы
    Вы не можете отвечать на сообщения
    Вы не можете редактировать свои сообщения
    Вы не можете удалять свои сообщения
    Вы не можете голосовать в опросах
    Вы не можете прикреплять файлы к сообщениям
    Вы можете скачивать файлы