новый адрес
Ссылка на приватное зеркало всего за 1$. Внимание количество ограничено!!!

iTunes

1+1

iTunes

мы

WEB-DL

1

iTunes

Чернобыль

iTunes

Ральф против интернета

Лицензия

ПШазам

Лицензия

Оно 2

Лицензия

30
pack

Вам бонус

ВАЖНО

!!Акция!!

Alien_RageХит недели

RePack

Resident Evil 21

ИГРА 18+

pack

RePack

jed

!!Акция!!

Alien_Rage

RePack

fifa19

RePack

Assassins Creed: Odyssey

RePack

NEED FOR SPEED™ PAYBACK

3 сезон

9 сезон

Бесстыжие 9 сезон

Все сериалы

все сериалы на PB.wtf

RePack

FAR CRY 5
Ребята, катастрофически не хватает 1900р. для оплаты серверов за Октябрь (всвязи с блокировками трафик упал в 3 раза), 1-2р., выручайте.
  

Гринч в 3Д / The Grinch 3D (Ярроу Чейни, Скотт Моужер) [2018, мультфильм, фэнтези, комедия, BDRip 1080p] DUB [iTunes] + 2xMVO | Half OverUnder pb.wtf

Гринч в 3Д через торрент pb.wtf

Раздают: 2 [ 0 KB/s ]
Размер: 5.79 GB | Добавлен: 8 мес. назад | Торрент скачан:109 раз
Скачать  

02-02-2019 12:45 Гринч в 3Д Скачать торрент  

Гринч / The Grinch««Символ нового года»»

Год выпуска: 2018
Страна: Франция, Китай, Япония, США
Жанр: мультфильм, фэнтези, комедия, семейный
Продолжительность: 01:27:26
Перевод: Дублированный, профессиональный многоголосый, любительский многоголосый
Субтитры: Русские, английские
Режиссер: Ярроу Чейни, Скотт Моужер
В ролях:

Бенедикт Камбербэтч (The Grinch, озвучка), Кэмерон Сили (Cindy-Lou Who, озвучка), Рашида Джонс (Donna Who, озвучка), Фаррелл Уильямс (рассказчик, озвучка), Тристан О’Хэйр (Groopert, озвучка), Кенан Томпсон (Mr. Bricklebaum, озвучка), Сэм Лаваньино (Ozzy, озвучка), Рамон Хэмилтон (Axl, озвучка), Анджела Лэнсбери (Mayor McGerkle, озвучка), Скарлетт Эстевес (Izzy, озвучка), Майкл Битти (Store Clerk, озвучка), Лори Алан (дополнительные голоса, озвучка)
Описание:
Любой бы на месте Гринча позеленел и взбесился. Как порядочный интроверт он живёт в тёмной пещере на самой вершине горы подальше ото всех, но эти «все» готовят грандиознейшее празднование нового года. Они шумят, всё украшают и дико бесят. Кто бы отказал себе в удовольствии испортить праздник? Гринч решает украсть Новый год.
Рейтинг:

MPAA: PG - Рекомендуется присутствие родителей
Качество: BDRip 1080p
Формат: MKV
Формат 3D: Half OverUnder / Вертикальная анаморфная стереопара
Видео: MPEG-4 AVC, 8000 Кбит/с, 1920x1080, 23.976 кадр/с
Аудио 1: Русский / AC3 / 48 KHz / 5.1 ch / 384 Kbps Дублированный | iTunes
Аудио 2: Русский / AC3 / 48 KHz / 2.0 ch / 192 Kbps Профессиональный (многоголосый, закадровый) | HDRezka Studio
Аудио 3: Русский / AC3 / 48 KHz / 5.1 ch / 640 Kbps (MVO - MuzOboz) [ремастеринг - от Ash6]
Аудио 4: Английский / AC3 / 48 KHz / 5.1 ch / 448 Kbps (Original)
Навигация по главам: есть

Общее
Уникальный идентификатор : 187748912492320990866023427288837717043 (0x8D3F201101DADDF7A964AC710C40FC33)
Полное имя : D:\Мои раздачи\Передел\TheGrinch(2018)3D-halfOU.BDRip.Master5.mkv
Формат : Matroska
Версия формата : Version 4 / Version 2
Размер файла : 5,79 Гбайт
Продолжительность : 1 ч. 25 м.
Общий поток : 9666 Кбит/сек
Название фильма : TheGrinch(2018)3D-halfOU.BDRip.Master5
Дата кодирования : UTC 2019-03-22 08:09:44
Программа кодирования : mkvmerge v7.9.0 ('Birds') 64bit
Библиотека кодирования : libebml v1.3.1 + libmatroska v1.4.2
Обложка : Yes
Attachments : small_cover_land.jpg / cover.jpg / cover_land.jpg / small_cover.jpg

Видео
Идентификатор : 1
Формат : AVC
Формат/Информация : Advanced Video Codec
Профиль формата : High@L4.1
MultiView_Count : 2
MultiView_Layout : Top-Bottom (left eye first)
Настройки формата : CABAC / 4 Ref Frames
Параметр CABAC формата : Да
Параметр RefFrames формата : 4 кадра
Идентификатор кодека : V_MPEG4/ISO/AVC
Продолжительность : 1 ч. 25 м.
Битрейт : 8000 Кбит/сек
Ширина : 1920 пикселей
Высота : 1080 пикселей
Соотношение сторон : 16:9
Режим частоты кадров : Постоянный
Частота кадров : 23,976 (24000/1001) кадра/сек
Цветовое пространство : YUV
Субдискретизация насыщенности : 4:2:0
Битовая глубина : 8 бит
Тип развёртки : Прогрессивная
Бит/(Пиксели*Кадры) : 0.161
Размер потока : 4,80 Гбайт (83%)
Заголовок : TheGrinch(2018)3D-halfOU.BDRip.Master5
Библиотека кодирования : x264 core 146 r2538 121396c
Настройки программы : cabac=1 / ref=4 / deblock=1:-3:-3 / analyse=0x3:0x113 / me=umh / subme=10 / psy=1 / psy_rd=1.00:0.00 / mixed_ref=1 / me_range=32 / chroma_me=1 / trellis=2 / 8x8dct=1 / cqm=0 / deadzone=21,11 / fast_pskip=0 / chroma_qp_offset=-2 / threads=12 / lookahead_threads=2 / sliced_threads=0 / nr=0 / decimate=0 / interlaced=0 / bluray_compat=0 / constrained_intra=0 / bframes=9 / b_pyramid=2 / b_adapt=2 / b_bias=0 / direct=3 / weightb=1 / open_gop=0 / weightp=2 / keyint=250 / keyint_min=23 / scenecut=40 / intra_refresh=0 / rc_lookahead=60 / rc=2pass / mbtree=0 / bitrate=8000 / ratetol=1.0 / qcomp=0.70 / qpmin=0 / qpmax=69 / qpstep=4 / cplxblur=20.0 / qblur=0.5 / vbv_maxrate=40000 / vbv_bufsize=30000 / nal_hrd=none / filler=0 / frame-packing=4 / ip_ratio=1.40 / pb_ratio=1.30 / aq=1:0.70
Язык : English
Default : Да
Forced : Нет

Аудио #1
Идентификатор : 2
Формат : AC-3
Формат/Информация : Audio Coding 3
Идентификатор кодека : A_AC3
Продолжительность : 1 ч. 25 м.
Вид битрейта : Постоянный
Битрейт : 384 Кбит/сек
Каналы : 6 каналов
Расположение каналов : Front: L C R, Side: L R, LFE
Частота : 48,0 КГц
Частота кадров : 31,250 кадров/сек (1536 SPF)
Битовая глубина : 16 бит
Метод сжатия : С потерями
Размер потока : 236 Мбайт (4%)
Заголовок : Дублированный | iTunes
Язык : Russian
ServiceKind/String : Complete Main
Default : Да
Forced : Нет

Аудио #2
Идентификатор : 3
Формат : AC-3
Формат/Информация : Audio Coding 3
Идентификатор кодека : A_AC3
Продолжительность : 1 ч. 25 м.
Вид битрейта : Постоянный
Битрейт : 192 Кбит/сек
Каналы : 2 канала
Расположение каналов : Front: L R
Частота : 48,0 КГц
Частота кадров : 31,250 кадров/сек (1536 SPF)
Битовая глубина : 16 бит
Метод сжатия : С потерями
Размер потока : 118 Мбайт (2%)
Заголовок : многоголосый HDRezka Studio
Язык : Russian
ServiceKind/String : Complete Main
Default : Нет
Forced : Нет

Аудио #3
Идентификатор : 4
Формат : AC-3
Формат/Информация : Audio Coding 3
Идентификатор кодека : A_AC3
Продолжительность : 1 ч. 25 м.
Вид битрейта : Постоянный
Битрейт : 640 Кбит/сек
Каналы : 6 каналов
Расположение каналов : Front: L C R, Side: L R, LFE
Частота : 48,0 КГц
Частота кадров : 31,250 кадров/сек (1536 SPF)
Битовая глубина : 16 бит
Метод сжатия : С потерями
Размер потока : 393 Мбайт (7%)
Заголовок : MVO
Язык : Russian
ServiceKind/String : Complete Main
Default : Нет
Forced : Нет

Аудио #4
Идентификатор : 5
Формат : AC-3
Формат/Информация : Audio Coding 3
Идентификатор кодека : A_AC3
Продолжительность : 1 ч. 25 м.
Вид битрейта : Постоянный
Битрейт : 448 Кбит/сек
Каналы : 6 каналов
Расположение каналов : Front: L C R, Side: L R, LFE
Частота : 48,0 КГц
Частота кадров : 31,250 кадров/сек (1536 SPF)
Битовая глубина : 16 бит
Метод сжатия : С потерями
Размер потока : 275 Мбайт (5%)
Заголовок : Original
Язык : English
ServiceKind/String : Complete Main
Default : Нет
Forced : Нет

Текст #1
Идентификатор : 6
Формат : UTF-8
Идентификатор кодека : S_TEXT/UTF8
Идентификатор кодека/Информация : UTF-8 Plain Text
Продолжительность : 1 ч. 17 м.
Битрейт : 2 бит/сек
ElementCount : 27
Размер потока : 1,14 Кбайт (0%)
Заголовок : Форсированные
Язык : Russian
Default : Да
Forced : Нет

Текст #2
Идентификатор : 7
Формат : UTF-8
Идентификатор кодека : S_TEXT/UTF8
Идентификатор кодека/Информация : UTF-8 Plain Text
Продолжительность : 1 ч. 17 м.
Битрейт : 52 бит/сек
ElementCount : 1024
Размер потока : 30,0 Кбайт (0%)
Заголовок : Full
Язык : English
Default : Нет
Forced : Нет

Текст #3
Идентификатор : 8
Формат : UTF-8
Идентификатор кодека : S_TEXT/UTF8
Идентификатор кодека/Информация : UTF-8 Plain Text
Продолжительность : 1 ч. 20 м.
Битрейт : 61 бит/сек
ElementCount : 1304
Размер потока : 36,1 Кбайт (0%)
Заголовок : SDH
Язык : English
Default : Нет
Forced : Нет

Меню
00:00:00.000 : :1
00:05:40.298 : :2
00:10:35.927 : :3
00:14:14.103 : :4
00:17:45.106 : :5
00:22:19.296 : :6
00:26:28.337 : :7
00:30:45.093 : :8
00:34:46.584 : :9
00:38:37.190 : :10
00:44:40.595 : :11
00:47:27.678 : :12
00:52:37.488 : :13
00:56:33.181 : :14
01:01:04.995 : :15
01:05:34.639 : :16
01:07:23.456 : :17
01:12:14.914 : :18
01:14:12.782 : :19
01:18:08.309 : :20
pb.wtf



Скачать Гринч в 3Д через торрент https://c.radikal.ru/c42/1903/af/c770776f881e.png Скачать фильм Гринч в 3Д через торрент бесплантно в хорошем качестве Описание: Любой бы на месте Гринча позеленел и взбесился. Как порядочный интроверт он живёт в тёмной пещере на самой вершине горы подальше ... 9.5 10 6
Info! Золотая раздача, скачанное не засчитывается.
Торрент: Зарегистрирован [2019-03-22 09:11] · скачан: 109 раз
Статус: √ проверено
Размер: 5.79 GB
Как cкачать? Как скачать Гринч в 3Д через торрент | qTorrent



Последний раз редактировалось: sheker187 (2019-03-22 09:46), всего редактировалось 2 раз(а)

28-11-2019 20:33  

Отключить всю рекламу на сайте

    Дорогой пользователь! Огромная просьба, поблагодарите релизера, оцените раздачу и оставьте свои комментарий, если Вы скачали Гринч в 3Д через торрент бесплатно! Внесите свою лепту в развитие PiratBit!
    Комментировать посты могут только пользователи прошедшие не сложную регистрацию
    Показать сообщения:    

    Гринч в 3Д через торрент
    Скачать бесплатно Гринч в 3Д
    Гринч в 3Д скачать торрент
    Гринч в 3Д смотреть онлайн
    Cкачать фильм Гринч в 3Д бесплатно
    Гринч в 3Д скачать торрент в хорошем качестве
    Гринч в 3Д смотреть онлайн бесплатно в хорошем качестве


    Вы не можете начинать темы
    Вы не можете отвечать на сообщения
    Вы не можете редактировать свои сообщения
    Вы не можете удалять свои сообщения
    Вы не можете голосовать в опросах
    Вы не можете прикреплять файлы к сообщениям
    Вы можете скачивать файлы