Ссылка на приватное зеркало всего за 1$. Внимание количество ограничено!!!

OK

1+1

iTunes

мы

OK

1

WEB-DLRip

Джокер

Пифагор

Ведьмак / The Witcher сериал

iTunes

ПШазам

ОК

Оно 2

iTunes

30
pack

Вам бонус

ВАЖНО

!!Акция!!

Alien_RageХит недели

RePack

Resident Evil 21

ИГРА 18+

pack

RePack

jed

RePack

fifa19

RePack

Assassins Creed: Odyssey

RePack

NEED FOR SPEED™ PAYBACK

4 сезон

9 сезон

Бесстыжие 9 сезон

Все сериалы

все сериалы на PB.wtf

RePack

FAR CRY 5
  

Высота / Altitude (Алекс Меркин) [2017, боевик, триллер, криминал, BDRip 720p] MVO [Официальный звук] pb.wtf

Высота через торрент pb.wtf

Размер: 4.45 GB | Добавлен: 11 мес. назад | Торрент скачан:78 раз
Скачать  

02-02-2019 14:41 Высота Скачать торрент  

Высота / Altitude Год выпуска: 2017
Страна: США
Жанр: боевик, триллер, криминал
Продолжительность: 01:29:01
Перевод: Профессиональный многоголосый | Официальный звук
Субтитры: отсутствуют

Режиссер: Алекс Меркин

rating

В ролях:

Дениз Ричардс, Дольф Лундгрен, Джонатан Липники, Грир Грэммер, Виктория Аткин, Кирк Баркер, Джон Пози, Чак Лиделл, Хорди Виласусо, Том ДеНуччи

Описание:

Агенту ФБР предлагают несколько миллионов долларов, чтобы помочь вору сбежать из захваченного самолёта.

Качество: BDRip 720p
Формат: MKV

Видео: h.264, 6 700 kb/s, 1280x536
Аудио#1: Русский (AC3, 2 ch, 448 Кбит/с)
скриншот  скриншот  скриншот  

Общее
Уникальный идентификатор : 246625475141790890352359983783060948991 (0xB98A56B9227816AA84D2D98F69FFC7FF)
Полное имя : D:\Altitude.2017.Pof.BDRip.72Op_KOSHARA.mkv
Формат : Matroska
Версия формата : Version 2
Размер файла : 4,45 Гбайт
Продолжительность : 1 ч. 29 м.
Режим общего битрейта : Переменный
Общий поток : 7150 Кбит/сек
Дата кодирования : UTC 2019-02-01 14:16:31
Программа кодирования : mkvmerge v8.3.0 ('Over the Horizon') 64bit
Библиотека кодирования : libebml v1.3.1 + libmatroska v1.4.2

Видео
Идентификатор : 1
Формат : AVC
Формат/Информация : Advanced Video Codec
Профиль формата : High@L4.1
Параметр CABAC формата : Да
Параметр RefFrames формата : 4 кадра
Идентификатор кодека : V_MPEG4/ISO/AVC
Продолжительность : 1 ч. 29 м.
Вид битрейта : Переменный
Битрейт : 6700 Кбит/сек
Максимальный битрейт : 7500 Кбит/сек
Ширина : 1280 пикселей
Высота : 536 пикселей
Соотношение сторон : 2,40:1
Режим частоты кадров : Постоянный
Частота кадров : 23,976 (24000/1001) кадра/сек
Стандарт вещания : Component
Цветовое пространство : YUV
Субдискретизация насыщенности : 4:2:0
Битовая глубина : 8 бит
Тип развёртки : Прогрессивная
Бит/(Пиксели*Кадры) : 0.399
Размер потока : 4,08 Гбайт (92%)
Default : Да
Forced : Нет
Цветовой диапазон : Limited
Основные цвета : BT.709
Характеристики трансфера : BT.709
Коэффициенты матрицы : BT.709

Аудио
Идентификатор : 2
Формат : AC-3
Формат/Информация : Audio Coding 3
Расширение режима : CM (complete main)
Параметр Endianness формата : Big
Идентификатор кодека : A_AC3
Продолжительность : 1 ч. 29 м.
Вид битрейта : Постоянный
Битрейт : 448 Кбит/сек
Каналы : 2 канала
Расположение каналов : Front: L R
Частота : 48,0 КГц
Частота кадров : 31,250 кадров/сек (1536 spf)
Метод сжатия : С потерями
Размер потока : 285 Мбайт (6%)
Default : Да
Forced : Нет

pb.wtf



Скачать Высота через торрент http://b.radikal.ru/b31/1712/4b/aa5d4086e969.jpg Скачать фильм Высота через торрент бесплантно в хорошем качестве Описание: Агенту ФБР предлагают несколько миллионов долларов, чтобы помочь вору сбежать из захваченного ... 7.8 10 4
Торрент: Зарегистрирован [2019-02-02 14:41] · скачан: 78 раз
Статус: # сомнительно
Размер: 4.45 GB
Как cкачать? Как скачать Высота через торрент | qTorrent

% Раздел Тема Автор DL S | L
T Фильмы (мультфильмы) cо спонсором показа (Новинки AVI/MKV) [ 1.37 GB ] Высота / Altitude [2017 HDRip] MVO [Официальный звук] bober100 Скачать
1 | 0
Фильмы без перевода [ 19.74 GB ] Высота / Altitude [2017 BD Remux] [Оригинал-ENG] smaster Скачать
1 | 0
Фильмы [HD 720p, 1080p] (Хороший звук DUB, MVO) [ 5.66 GB ] Высота / Altitude [2010 BDRip ] ~Relizer~ Скачать
1 | 0
Фильмы 2010 [ 1.46 GB ] Высота / Altitude [2010 HDRip] Lil Badun Скачать
1 | 0

28-11-2019 20:33  

Отключить всю рекламу на сайте

    Дорогой пользователь! Огромная просьба, поблагодарите релизера, оцените раздачу и оставьте свои комментарий, если Вы скачали Высота через торрент бесплатно! Внесите свою лепту в развитие PiratBit!
    Комментировать посты могут только пользователи прошедшие не сложную регистрацию
    Показать сообщения:    

    Высота через торрент
    Скачать бесплатно Высота
    Высота скачать торрент
    Высота смотреть онлайн
    Cкачать фильм Высота бесплатно
    Высота скачать торрент в хорошем качестве
    Высота смотреть онлайн бесплатно в хорошем качестве


    Вы не можете начинать темы
    Вы не можете отвечать на сообщения
    Вы не можете редактировать свои сообщения
    Вы не можете удалять свои сообщения
    Вы не можете голосовать в опросах
    Вы не можете прикреплять файлы к сообщениям
    Вы можете скачивать файлы