2 сезон

iTunes

WEBRip

1

2 сезон

iTunes

1 сезон

1 сезон

RePack

30

Новинка

ВАЖНО

ИГРА 18+

pack

RePack

MK11
pack

Легкие деньги

RePack

jed

RePack

fifa19

RePack

RDR2

RePack

NEED FOR SPEED™ PAYBACK

4 сезон

9 сезон

Бесстыжие 9 сезон

Все сериалы

все сериалы на PB.wtf

RePack

FAR CRY 5

Anonymous, добрый вечер, мы не успеваем собрать деньги на оплату серверов за февраль, помогите нам пожалуйста в это трудное время. В качестве благодарности мы отключим Вам всю рекламу на сайте (укажите свой ник в строку Ваше имя)!

×
  
Magnet ссылка

Высота / Altitude (Алекс Меркин) [2017, боевик, триллер, криминал, BDRip 1080p] MVO [iTunes] pb.wtf

Высота через торрент pb.wtf

Размер: 10.38 GB | Добавлен: 8 мес. назад | Торрент скачан:29 раз
Скачать  

02-02-2019 14:41 Высота Скачать торрент  

Высота | Altitude
Год выпуска: 2017
Страна: США
Выпущено: Boundless Pictures, Dawn's Light, Firebrand
Жанр: боевик, триллер, криминал
Продолжительность: 01:27:57
Перевод: Профессиональный многоголосый | iTunes
Субтитры: English

Режиссер: Алекс Меркин

rating

В ролях: Дэнис Ричардс, Дольф Лундгрен, Джонатан Липники, Грир Грэммер, Джон Пози, Стивен Грейбилл, Хорди Виласусо, Чак Лиделл, Челси Эдмундсон, Ник Принси

Описание: После неудачной операции по освобождению заложников, опытная агент ФБР (Дениз Ричардс) была переведена в Вашингтон для бумажной работы. Во время перелёта она знакомится с мужчиной, который предлагает ей хорошее вознаграждение за то, чтобы та помогла ему пережить этот полёт. Но кто этот загадочный пассажир и что она выберет.

Качество: BDRip 1080p
Формат: MKV

Видео: MPEG-4 AVC, 12.6 Мb/s, 1920x800
Аудио #1 Russian: 48 kHz, AC3 Dolby Digital, 2/0 (L, R) ch, ~192 Kbps | iTunes
Аудио #2 English: 48 kHz, Digital Theater Systems, 3/2 (L, C, R, l, r) + LFE ch, ~1509 Kbps | Original
скриншот  скриншот  скриншот  скриншот  

Complete name: Vyisota.2017.1080p.BluRay.ELEKTRI4KA.UNIONGANG.mkv
Format: Matroska
Format version: Version 4 / Version 2
File size: 10.4 GiB
Duration: 1 h 27 min
Overall bit rate: 16.9 Mb/s
Movie name: .ELEKTRI4KA.UNIONGANG
Encoded date: UTC 2020-06-21 06:22:27
Writing application: mkvmerge v8.3.0 ('Over the Horizon') 64bit
Writing library: libebml v1.3.1 + libmatroska v1.4.2

Video
ID: 1
Format: AVC
Format/Info: Advanced Video Codec
Format profile: High@L4.1
Format settings, CABAC: Yes
Format settings, Reference frames: 5 frames
Codec ID: V_MPEG4/ISO/AVC
Duration: 1 h 27 min
Bit rate: 12.6 Mb/s
Width: 1 920 pixels
Height: 800 pixels
Display aspect ratio: 2.40:1
Frame rate mode: Constant
Frame rate: 23.976 (24000/1001) FPS
Color space: YUV
Chroma subsampling: 4:2:0
Bit depth: 8 bits
Scan type: Progressive
Bits/(Pixel*Frame): 0.341
Stream size: 7.71 GiB (74%)
Title: .ELEKTRI4KA.UNIONGANG
Writing library: x264 core 142 r2431+42 c69a006 tMod [8-bit@all X86_64]
Encoding settings: cabac=1 / ref=5 / deblock=1:-3:-3 / analyse=0x3:0x133 / me=umh / subme=11 / psy=1 / fade_compensate=0.00 / psy_rd=1.05:0.15 / mixed_ref=1 / me_range=48 / chroma_me=1 / trellis=2 / 8x8dct=1 / cqm=0 / deadzone=21, 11 / fast_pskip=1 / chroma_qp_offset=-3 / threads=16 / lookahead_threads=4 / sliced_threads=0 / nr=0 / decimate=0 / interlaced=0 / bluray_compat=0 / constrained_intra=0 / fgo=0 / bframes=10 / b_pyramid=2 / b_adapt=2 / b_bias=0 / direct=3 / weightb=1 / open_gop=0 / weightp=2 / keyint=240 / keyint_min=23 / scenecut=40 / intra_refresh=0 / rc_lookahead=60 / rc=2pass / mbtree=1 / bitrate=12570 / ratetol=1.0 / qcomp=0.70 / qpmin=0:0:0 / qpmax=69:69:69 / qpstep=4 / cplxblur=20.0 / qblur=0.5 / vbv_maxrate=50000 / vbv_bufsize=62500 / nal_hrd=none / filler=0 / ip_ratio=1.30 / aq=1:0.80 / aq-sensitivity=10.00 / aq-factor=1.00:1.00:1.00 / aq2=0 / aq3=0
Default: Yes
Forced: No
Color range: Limited
Color primaries: BT.709
Transfer characteristics: BT.709
Matrix coefficients: BT.709

Audio #1
ID: 2
Format: AC-3
Format/Info: Audio Coding 3
Mode extension: CM (complete main)
Format settings, Endianness: Big
Codec ID: A_AC3
Duration: 1 h 27 min
Bit rate mode: Constant
Bit rate: 192 kb/s
Channel(s): 2 channels
Channel positions: Front: L R
Sampling rate: 48.0 kHz
Frame rate: 31.250 FPS (1536 spf)
Bit depth: 16 bits
Compression mode: Lossy
Stream size: 121 MiB (1%)
Title: iTunes
Language: Russian
Default: Yes
Forced: No

Audio #2
ID: 3
Format: DTS
Format/Info: Digital Theater Systems
Format profile: MA / Core
Mode: 16
Format settings, Endianness: Big
Codec ID: A_DTS
Duration: 1 h 27 min
Bit rate mode: Variable / Constant
Bit rate: 4 112 kb/s / 1 509 kb/s
Channel(s): 6 channels
Channel positions: Front: L C R, Side: L R, LFE
Sampling rate: 48.0 kHz
Frame rate: 93.750 FPS (512 spf)
Bit depth: 24 bits
Compression mode: Lossless / Lossy
Stream size: 2.53 GiB (24%)
Title: English
Language: English
Default: No
Forced: No

Text #1
ID: 4
Format: PGS
Muxing mode: zlib
Codec ID: S_HDMV/PGS
Codec ID/Info: Picture based subtitle format used on BDs/HD-DVDs
Duration: 1 h 21 min
Bit rate: 14.3 kb/s
Count of elements: 1654
Stream size: 8.30 MiB (0%)
Title: English-PGS
Language: English
Default: Yes
Forced: No

Text #2
ID: 5
Format: PGS
Muxing mode: zlib
Codec ID: S_HDMV/PGS
Codec ID/Info: Picture based subtitle format used on BDs/HD-DVDs
Duration: 1 h 27 min
Bit rate: 15.6 kb/s
Count of elements: 1984
Stream size: 9.80 MiB (0%)
Title: English-SDH-PGS
Language: English
Default: No
Forced: No

Menu
00:00:00.000: en:Chapter 01
00:05:41.049: en:Chapter 02
00:10:25.541: en:Chapter 03
00:14:45.175: en:Chapter 04
00:19:49.563: en:Chapter 05
00:24:57.120: en:Chapter 06
00:30:10.683: en:Chapter 07
00:35:14.278: en:Chapter 08
00:40:09.031: en:Chapter 09
00:44:24.203: en:Chapter 10
00:51:34.716: en:Chapter 11
00:55:31.911: en:Chapter 12
01:00:02.890: en:Chapter 13
01:05:26.923: en:Chapter 14
01:10:54.959: en:Chapter 15
01:18:00.509: en:Chapter 16

pb.wtf



Скачать Высота через торрент https://i4.imageban.ru/out/2020/06/21/223b9ce7ffc42434b1b9c4b717141891.png Скачать фильм Высота через торрент бесплантно в хорошем качестве Описание: После неудачной операции по освобождению заложников, опытная агент ФБР (Дениз Ричардс) была переведена в Вашингтон для бумажной ... 8.7 10 7
Торрент: Зарегистрирован [2020-06-21 17:35] · скачан: 29 раз
Статус: √ проверено
Размер: 10.38 GB
Как cкачать? Как скачать Высота через торрент | UTorrent

% Раздел Тема Автор DL S | L
Фильмы 2017 [DVDrip, WEB-DLRip, HDrip] (DUB, MVO) [ 1.37 GB ] Высота / Altitude [2017 HDRip] MVO bober100 Скачать
1 | 0
Фильмы без перевода [ 19.74 GB ] Высота / Altitude [2017 BD Remux] [Оригинал-ENG] smaster Скачать
1 | 0
Фильмы [HD 720p, 1080p] (Хороший звук DUB, MVO) [ 5.66 GB ] Высота / Altitude [2010 BDRip ] ~Relizer~ Скачать
1 | 0
Фильмы 2010 [ 1.46 GB ] Высота / Altitude [2010 HDRip] Lil Badun Скачать
1 | 0

28-11-2019 20:33  

Отключить всю рекламу на сайте

    Дорогой пользователь! Огромная просьба, поблагодарите релизера, оцените раздачу и оставьте свои комментарий, если Вы скачали Высота через торрент бесплатно! Внесите свою лепту в развитие PiratBit!
    Комментировать посты могут только пользователи прошедшие не сложную регистрацию
    Показать сообщения:    

    Высота через торрент
    Скачать бесплатно Высота
    Высота скачать торрент
    Высота смотреть онлайн
    Cкачать фильм Высота бесплатно
    Высота скачать торрент в хорошем качестве
    Высота смотреть онлайн бесплатно в хорошем качестве


    Вы не можете начинать темы
    Вы не можете отвечать на сообщения
    Вы не можете редактировать свои сообщения
    Вы не можете удалять свои сообщения
    Вы не можете голосовать в опросах
    Вы не можете прикреплять файлы к сообщениям
    Вы можете скачивать файлы