Ссылка на приватное зеркало нашего сайта всего за 1$. Внимание количество ограничено!!!

2 сезон

iTunes

1 сезон

1

2 сезон

2 сезон

iTunes

1 сезон

RePack

30

Ultimate

ВАЖНО

ИГРА 18+

pack

RePack

MK11
pack

Забери бонус

RePack

jed

!!Акция!!

Alien_Rage

RePack

fifa19

RePack

Assassins Creed: Odyssey

RePack

NEED FOR SPEED™ PAYBACK

4 сезон

9 сезон

Бесстыжие 9 сезон

Все сериалы

все сериалы на PB.wtf

RePack

FAR CRY 5
  

Уэйн / Wayne / Сезон: 1 / Серии: 1-10 из 10 (Стив Пинк, Тесса Хофф) [2019, боевик, комедия, WEB-DLRip] MVO (Jaskier) pb.wtf

Уэйн через торрент pb.wtf

Размер: 3.9 GB | Добавлен: 1 год 10 мес. назад | Торрент скачан:32 раза
Скачать  

02-02-2019 17:51 Уэйн Скачать торрент  

Уэйн / Wayne

Год выпуска: 2019
Страна: США
Жанр: боевик, комедия
Продолжительность: ~ 00:35:00
Перевод: Профессиональный (многоголосый закадровый) | Jaskier | БЕЗ ЦЕНЗУРЫ
Субтитры: отсутствуют

Режиссёр: Стив Пинк, Тесса Хофф, Майкл Патрик Джэнн

В ролях:

Сиэра Браво, Марк МакКенна, Джеймс Эрл, Стивен Кеарин, Дин Уинтерс, Майк О’Мэлли, Джошуа Дж. Уильямс

Описание:

16-летний Уэйн вместе с подругой отправляется на мотоцикле из Бостона во Флориду, чтобы вернуть старенький Понтиак своего отца, который был украден до его смерти.



Качество: WEB-DLRip
Формат: AVI

Видео: XviD, ~ 1400 kbps, 704x352, 23.976 fps
Аудио 1: MP3, 48,0 КГц, 2 ch, 128 kbps - RUS
Аудио 2: MP3, 48,0 КГц, 2 ch, 128 kbps - ENG


Реклама: аудио, два раза в начале и в конце по 12 секунд
Общее
Полное имя                               : V:\arhiv\Wayne Season 1 (WEB-DL l 400p l JASKiER)\Wayne.S01E01.400p.Jaskier.avi
Формат                                   : AVI
Формат/Информация                        : Audio Video Interleave
Размер файла                             : 420 Мбайт
Продолжительность                        : 35 м.
Общий поток                              : 1670 Кбит/сек
Программа кодирования                    : VirtualDubMod 1.5.10.3 | www.virtualdub-fr.org || (build 2550/release)
Библиотека кодирования                   : VirtualDubMod build 2550/release

Видео
Идентификатор                            : 0
Формат                                   : MPEG-4 Visual
Профиль формата                          : Advanced Simple@L5
Параметр BVOP формата                    : 2
Параметр QPel формата                    : Нет
Параметр GMC формата                     : Без точки перехода
Параметр матрицы формата                 : Выборочная
Идентификатор кодека                     : XVID
Идентификатор кодека/Подсказка           : XviD
Продолжительность                        : 35 м.
Битрейт                                  : 1400 Кбит/сек
Ширина                                   : 704 пикселя
Высота                                   : 352 пикселя
Соотношение сторон                       : 2,000
Частота кадров                           : 23,976 (23976/1000) кадра/сек
Цветовое пространство                    : YUV
Субдискретизация насыщенности            : 4:2:0
Битовая глубина                          : 8 бит
Тип развёртки                            : Прогрессивная
Метод сжатия                             : С потерями
Бит/(Пиксели*Кадры)                      : 0.236
Размер потока                            : 352 Мбайт (84%)
Библиотека кодирования                   : XviD 73

Аудио #1
Идентификатор                            : 1
Формат                                   : MPEG Audio
Версия формата                           : Version 1
Профиль формата                          : Layer 3
Режим                                    : Joint stereo
Идентификатор кодека                     : 55
Идентификатор кодека/Подсказка           : MP3
Продолжительность                        : 35 м.
Вид битрейта                             : Постоянный
Битрейт                                  : 128 Кбит/сек
Каналы                                   : 2 канала
Частота                                  : 48,0 КГц
Метод сжатия                             : С потерями
Размер потока                            : 32,2 Мбайт (8%)
Выравнивание                             : Соединение по промежуткам
Продолжительность промежутка             : 42  мс. (1,00 видеокадр)
Время предзагрузки промежутка            : 504  мс.

Аудио #2
Идентификатор                            : 2
Формат                                   : MPEG Audio
Версия формата                           : Version 1
Профиль формата                          : Layer 3
Режим                                    : Joint stereo
Идентификатор кодека                     : 55
Идентификатор кодека/Подсказка           : MP3
Продолжительность                        : 35 м.
Вид битрейта                             : Постоянный
Битрейт                                  : 128 Кбит/сек
Каналы                                   : 2 канала
Частота                                  : 48,0 КГц
Метод сжатия                             : С потерями
Размер потока                            : 32,2 Мбайт (8%)
Выравнивание                             : Соединение по промежуткам
Продолжительность промежутка             : 42  мс. (1,00 видеокадр)
Время предзагрузки промежутка            : 504  мс.
скриншот  скриншот  скриншот  
Когда раздача ведётся путём добавления новых серий, при каждом добавлении создётся новый торрент. Чтобы начать докачку новой серии, пользователям необходимо сделать следующее:
(1) остановить скачивание,
(2) удалить старый торрент у себя из клиента (старые серии удалять не надо),
(3) скачать новый торрент и запустить его у себя в клиенте вместо старого, при этом указать клиенту путь в старую папку, куда и должно происходить скачивание новых серий.
Ваш клиент при этом должен произвести хеширование (проверку) старой папки (если не производит сам - помогите ему сделать это), и будет докачивать только те серии, которых у вас ещё нет. Старые серии при этом не удаляются, а продолжают раздаваться!
Eсли вы уже удалили старые серии, то предотвратить повторную закачку старых серий можно, отжав галочку в соответсвующих местах при запуске нового торрента. По возможности, желательно не удалять старые серии как можно дольше, чтобы релизёр не столько продолжал раздавать старые серии, а смог сконцентрироваться на новых.
pb.wtf



Скачать Уэйн через торрент http://img10.lostpic.net/2019/02/02/b1f154b32475151b277b7edd0e108880.png Скачать фильм Уэйн через торрент бесплантно в хорошем качестве Описание: 16-летний Уэйн вместе с подругой отправляется на мотоцикле из Бостона во Флориду, чтобы вернуть старенький Понтиак своего отца, ... 10 10 3
Торрент: Зарегистрирован [2019-02-02 17:51] · скачан: 32 раз
Статус: √ проверено
Размер: 3.9 GB
Как cкачать? Как скачать Уэйн через торрент | qTorrent

% Раздел Тема Автор DL S | L
Зарубежные сериалы [ 4.11 GB ] Уэйн / Wayne / Сезон: 1 / Серии: 1-10 из 10 [2019 WEBRip] MVO [NewStudio] bober100 Скачать
1 | 0
Зарубежные сериалы [ 4.91 GB ] Уэйн / Wayne / Сезон: 1 / Серии 1-10 из 10 [2019 WEB-DL 720] [DVO] killermax2013 Скачать
3 | 0
Зарубежные сериалы [ 29.55 GB ] Уэйн / Wayne / Сезон: 1 / Серии 1-10 из 10 [2019 WEB-DL 2160p] [DVO] killermax2013 Скачать
1 | 0
Зарубежные сериалы [ 29.56 GB ] Уэйн / Wayne / Сезон: 1 / Серии: 1-10 из 10 [2019 UHD WEBRip 2160p] MVO [Good People] bober100 Скачать
1 | 0
Зарубежные сериалы [ 4.91 GB ] Уэйн / Wayne / Сезон: 1 / Серии: 1-10 из 10 [2019 WEB-DL 720p] MVO [Jaskier] bober100 Скачать
1 | 0
Зарубежные сериалы [ 4.11 GB ] Уэйн / Wayne / Сезон: 1 / Серии: 1-10 из 10 [2019 WEB-DLRip] MVO [Good People] bober100 Скачать
1 | 0
Зарубежные сериалы [ 2.49 GB ] Уэйн / Wayne / Сезон: 1 / Серии 1-10 из 10 [2019 WEBRip-AVC] [MVO] killermax2013 Скачать
1 | 0

28-11-2019 20:33  

Отключить всю рекламу на сайте

    Дорогой пользователь! Огромная просьба, поблагодарите релизера, оцените раздачу и оставьте свои комментарий, если Вы скачали Уэйн через торрент бесплатно! Внесите свою лепту в развитие PiratBit!
    Комментировать посты могут только пользователи прошедшие не сложную регистрацию
    Показать сообщения:    

    Уэйн через торрент
    Скачать бесплатно Уэйн
    Уэйн скачать торрент
    Уэйн смотреть онлайн
    Cкачать фильм Уэйн бесплатно
    Уэйн скачать торрент в хорошем качестве
    Уэйн смотреть онлайн бесплатно в хорошем качестве


    Вы не можете начинать темы
    Вы не можете отвечать на сообщения
    Вы не можете редактировать свои сообщения
    Вы не можете удалять свои сообщения
    Вы не можете голосовать в опросах
    Вы не можете прикреплять файлы к сообщениям
    Вы можете скачивать файлы