Ссылка на приватное зеркало нашего сайта всего за 1$. Внимание количество ограничено!!!

2 сезон

iTunes

1 сезон

1

2 сезон

2 сезон

iTunes

1 сезон

RePack

30

Ultimate

ВАЖНО

ИГРА 18+

pack

RePack

MK11
pack

Забери бонус

RePack

jed

!!Акция!!

Alien_Rage

RePack

fifa19

RePack

Assassins Creed: Odyssey

RePack

NEED FOR SPEED™ PAYBACK

4 сезон

9 сезон

Бесстыжие 9 сезон

Все сериалы

все сериалы на PB.wtf

RePack

FAR CRY 5
  

Уэйн / Wayne / Сезон: 1 / Серии: 1-10 из 10 (Стив Пинк, Тесса Хофф) [2019, боевик, комедия, WEB-DL 720p] MVO [Jaskier] pb.wtf

Уэйн через торрент pb.wtf

Размер: 4.91 GB | Добавлен: 1 год 9 мес. назад | Торрент скачан:124 раза
Скачать  

02-02-2019 17:53 Уэйн Скачать торрент  

Уэйн / Wayne

Год выпуска: 2019
Страна: США
Жанр: боевик, комедия
Продолжительность: ~ 00:35:00
Перевод: Профессиональный (многоголосый закадровый) | Jaskier | БЕЗ ЦЕНЗУРЫ
Субтитры: отсутствуют

Режиссёр: Стив Пинк, Тесса Хофф, Майкл Патрик Джэнн

В ролях:

Сиэра Браво, Марк МакКенна, Джеймс Эрл, Стивен Кеарин, Дин Уинтерс, Майк О’Мэлли, Джошуа Дж. Уильямс

Описание:

16-летний Уэйн вместе с подругой отправляется на мотоцикле из Бостона во Флориду, чтобы вернуть старенький Понтиак своего отца, который был украден до его смерти.



Качество: WEB-DL 720p
Формат: MKV

Видео: X264, ~ 1300 kbps, 1280x720 (16:9), 23.976 fps
Аудио 1: AC3, 48,0 КГц, 6 ch, 384 kbps - RUS
Аудио 2: AC3, 48,0 КГц, 6 ch, 384 kbps - ENG


Реклама: аудио, два раза в начале и в конце по 12 секунд
Общее
Уникальный идентификатор                 : 228711738821455274914167162248880356336 (0xAC104755244F744482270A6199A67BF0)
Полное имя                               : V:\arhiv\Wayne Season 1 (WEB-DL l 720p l JASKiER)\Wayne.S01E01.720p.Jaskier.mkv
Формат                                   : Matroska
Версия формата                           : Version 2
Размер файла                             : 534 Мбайт
Продолжительность                        : 35 м.
Общий поток                              : 2123 Кбит/сек
Дата кодирования                         : UTC 2019-02-01 12:24:26
Программа кодирования                    : mkvmerge v7.8.0 ('River Man') 32bit built on Apr  3 2015 12:11:22
Библиотека кодирования                   : libebml v1.3.1 + libmatroska v1.4.2

Видео
Идентификатор                            : 1
Формат                                   : AVC
Формат/Информация                        : Advanced Video Codec
Профиль формата                          : Main@L3.1
Параметр CABAC формата                   : Да
Параметр ReFrames формата                : 3 кадра
Идентификатор кодека                     : V_MPEG4/ISO/AVC
Продолжительность                        : 35 м.
Битрейт                                  : 1312 Кбит/сек
Ширина                                   : 1280 пикселей
Высота                                   : 720 пикселей
Соотношение сторон                       : 16:9
Режим частоты кадров                     : Постоянный
Частота кадров                           : 23,976 (24000/1001) кадра/сек
Цветовое пространство                    : YUV
Субдискретизация насыщенности            : 4:2:0
Битовая глубина                          : 8 бит
Тип развёртки                            : Прогрессивная
Бит/(Пиксели*Кадры)                      : 0.059
Размер потока                            : 330 Мбайт (62%)
Default                                  : Да
Forced                                   : Нет
Цветовой диапазон                        : Limited
Основные цвета                           : BT.709
Характеристики трансфера                 : BT.709
Коэффициенты матрицы                     : BT.709

Аудио #1
Идентификатор                            : 2
Формат                                   : AC-3
Формат/Информация                        : Audio Coding 3
Расширение режима                        : CM (complete main)
Параметр Endianness формата              : Big
Идентификатор кодека                     : A_AC3
Продолжительность                        : 35 м.
Вид битрейта                             : Постоянный
Битрейт                                  : 384 Кбит/сек
Каналы                                   : 6 каналов
Расположение каналов                     : Front: L C R, Side: L R, LFE
Частота                                  : 48,0 КГц
Частота кадров                           : 31,250 кадров/сек (1536 spf)
Метод сжатия                             : С потерями
Размер потока                            : 96,6 Мбайт (18%)
Язык                                     : Russian
Default                                  : Да
Forced                                   : Нет

Аудио #2
Идентификатор                            : 3
Формат                                   : AC-3
Формат/Информация                        : Audio Coding 3
Расширение режима                        : CM (complete main)
Параметр Endianness формата              : Big
Идентификатор кодека                     : A_AC3
Продолжительность                        : 35 м.
Вид битрейта                             : Постоянный
Битрейт                                  : 384 Кбит/сек
Каналы                                   : 6 каналов
Расположение каналов                     : Front: L C R, Side: L R, LFE
Частота                                  : 48,0 КГц
Частота кадров                           : 31,250 кадров/сек (1536 spf)
Метод сжатия                             : С потерями
Размер потока                            : 96,6 Мбайт (18%)
Язык                                     : English
Default                                  : Нет
Forced                                   : Нет
скриншот  скриншот  скриншот  
Когда раздача ведётся путём добавления новых серий, при каждом добавлении создётся новый торрент. Чтобы начать докачку новой серии, пользователям необходимо сделать следующее:
(1) остановить скачивание,
(2) удалить старый торрент у себя из клиента (старые серии удалять не надо),
(3) скачать новый торрент и запустить его у себя в клиенте вместо старого, при этом указать клиенту путь в старую папку, куда и должно происходить скачивание новых серий.
Ваш клиент при этом должен произвести хеширование (проверку) старой папки (если не производит сам - помогите ему сделать это), и будет докачивать только те серии, которых у вас ещё нет. Старые серии при этом не удаляются, а продолжают раздаваться!
Eсли вы уже удалили старые серии, то предотвратить повторную закачку старых серий можно, отжав галочку в соответсвующих местах при запуске нового торрента. По возможности, желательно не удалять старые серии как можно дольше, чтобы релизёр не столько продолжал раздавать старые серии, а смог сконцентрироваться на новых.
pb.wtf



Скачать Уэйн через торрент http://img10.lostpic.net/2019/02/02/b1f154b32475151b277b7edd0e108880.png Скачать фильм Уэйн через торрент бесплантно в хорошем качестве Описание: 16-летний Уэйн вместе с подругой отправляется на мотоцикле из Бостона во Флориду, чтобы вернуть старенький Понтиак своего отца, ... 8.2 10 5
Info! Золотая раздача, скачанное не засчитывается.
Торрент: Зарегистрирован [2019-02-02 17:53] · скачан: 124 раз
Статус: √ проверено
Размер: 4.91 GB
Как cкачать? Как скачать Уэйн через торрент | qTorrent

% Раздел Тема Автор DL S | L
Зарубежные сериалы [ 4.11 GB ] Уэйн / Wayne / Сезон: 1 / Серии: 1-10 из 10 [2019 WEBRip] MVO [NewStudio] bober100 Скачать
1 | 0
Зарубежные сериалы [ 4.91 GB ] Уэйн / Wayne / Сезон: 1 / Серии 1-10 из 10 [2019 WEB-DL 720] [DVO] killermax2013 Скачать
2 | 0
Зарубежные сериалы [ 29.55 GB ] Уэйн / Wayne / Сезон: 1 / Серии 1-10 из 10 [2019 WEB-DL 2160p] [DVO] killermax2013 Скачать
1 | 0
Зарубежные сериалы [ 29.56 GB ] Уэйн / Wayne / Сезон: 1 / Серии: 1-10 из 10 [2019 UHD WEBRip 2160p] MVO [Good People] bober100 Скачать
1 | 0
Зарубежные сериалы [ 3.9 GB ] Уэйн / Wayne / Сезон: 1 / Серии: 1-10 из 10 [2019 WEB-DLRip] MVO bober100 Скачать
1 | 0
Зарубежные сериалы [ 4.11 GB ] Уэйн / Wayne / Сезон: 1 / Серии: 1-10 из 10 [2019 WEB-DLRip] MVO [Good People] bober100 Скачать
1 | 0
Зарубежные сериалы [ 2.49 GB ] Уэйн / Wayne / Сезон: 1 / Серии 1-10 из 10 [2019 WEBRip-AVC] [MVO] killermax2013 Скачать
1 | 0

28-11-2019 20:33  

Отключить всю рекламу на сайте

    Дорогой пользователь! Огромная просьба, поблагодарите релизера, оцените раздачу и оставьте свои комментарий, если Вы скачали Уэйн через торрент бесплатно! Внесите свою лепту в развитие PiratBit!
    Комментировать посты могут только пользователи прошедшие не сложную регистрацию
    Показать сообщения:    

    Уэйн через торрент
    Скачать бесплатно Уэйн
    Уэйн скачать торрент
    Уэйн смотреть онлайн
    Cкачать фильм Уэйн бесплатно
    Уэйн скачать торрент в хорошем качестве
    Уэйн смотреть онлайн бесплатно в хорошем качестве


    Вы не можете начинать темы
    Вы не можете отвечать на сообщения
    Вы не можете редактировать свои сообщения
    Вы не можете удалять свои сообщения
    Вы не можете голосовать в опросах
    Вы не можете прикреплять файлы к сообщениям
    Вы можете скачивать файлы