Ссылка на приватное зеркало нашего сайта всего за 1$. Внимание количество ограничено!!!

2 сезон

iTunes

1 сезон

1

iTunes

iTunes

iTunes

1 сезон

RePack

30

ИГРА 18+

pack

ВАЖНО

!!Акция!!

Alien_RageХит недели

RePack

MK11
pack

Забери бонус

RePack

jed

!!Акция!!

Alien_Rage

RePack

fifa19

RePack

Assassins Creed: Odyssey

RePack

NEED FOR SPEED™ PAYBACK

4 сезон

9 сезон

Бесстыжие 9 сезон

Все сериалы

все сериалы на PB.wtf

RePack

FAR CRY 5
  

Гринч / The Grinch (Ярроу Чейни, Скотт Моужер) [2018, мультфильм, фэнтези, комедия, BDRip-AVC] MVO [HDRezka Studio] - ExKinoRay pb.wtf

Гринч через торрент pb.wtf

Размер: 1.67 GB | Добавлен: 1 год 8 мес. назад | Торрент скачан:224 раза
Скачать  

02-02-2019 18:31 Гринч Скачать торрент  

Информация о фильме
Название: Гринч
Оригинальное название: The Grinch
Год выпуска: 2018
Жанр: Мультфильм, фэнтези, комедия, семейный, полнометражный
Режиссер: Ярроу Чейни, Скотт Моужер
В ролях: Бенедикт Камбербэтч, Кэмерон Сили, Рашида Джонс, Фаррелл Уильямс, Тристан О`Хара, Кенан Томпсон, Сэм Лаваньино, Рамон Хэмилтон, Анджела Лэнсбери, Скарлет Эстевез, Майкл Битти, Лори Алан, Ивэн Кишияма

Описание:
Любой бы на месте Гринча позеленел и взбесился. Как порядочный интроверт, он живёт в тёмной пещере на самой вершине горы подальше ото всех, но эти «все» готовят грандиознейшее празднование нового года. Они шумят, всё украшают и дико бесят. Кто бы отказал себе в удовольствии испортить праздник? Гринч решает украсть Новый год.



Страна: Китай, США, Франция, Япония
Студия: Illumination Entertainment , Perfect World Pictures Co., Universal Pictures
Продолжительность: 01:25:49
Перевод: Профессиональный (многоголосый, закадровый) | HDRezka Studio
Субтитры:
#1 - Русские Форсированные [от Ash61] (включены по умолчанию)
#2 - English Full

БЕЗ КАКОЙ-ЛИБО РЕКЛАМЫ!

Формат: MKV
Качество: BDRip-AVC
Видео: MPEG-4 AVC, 1024x428 (2.40:1), 23.976 fps, 2137 Kbps, 0.203 bit/pixel
Аудио #01: 48 kHz, AC3, 2.0, 192 Kbps | RUS |
Аудио #02: 48 kHz, AC3, 5.1, 448 Kbps | Оригинал | ENG |
General
Unique ID : 249967729856648077870204083482135100159 (0xBC0E089A697FE6D988B4D674DD27FAFF)
Complete name : D:\The.Grinch.2018.MVO.BDRip.AVC.ExKinoRay.mkv
Format : Matroska
Format version : Version 2
File size : 1.67 GiB
Duration : 1 h 25 min
Overall bit rate : 2 780 kb/s
Movie name : The Grinch (2018) from ExKinoRay
Encoded date : UTC 2019-02-24 02:36:05
Writing application : mkvmerge v5.6.0 ('Kenya Kane') built on May 27 2012 16:44:04
Writing library : libebml v1.2.3 + libmatroska v1.3.0

Video
ID : 1
Format : AVC
Format/Info : Advanced Video Codec
Format profile : High@L4.1
Format settings, CABAC : Yes
Format settings, ReFrames : 12 frames
Codec ID : V_MPEG4/ISO/AVC
Duration : 1 h 25 min
Bit rate : 2 137 kb/s
Width : 1 024 pixels
Height : 428 pixels
Display aspect ratio : 2.40:1
Frame rate mode : Constant
Frame rate : 23.976 (23976/1000) FPS
Color space : YUV
Chroma subsampling : 4:2:0
Bit depth : 8 bits
Scan type : Progressive
Bits/(Pixel*Frame) : 0.203
Stream size : 1.25 GiB (75%)
Title : Enigma
Writing library : x264 core 152 r2851 ba24899
Encoding settings : cabac=1 / ref=12 / deblock=1:-2:-2 / analyse=0x3:0x113 / me=umh / subme=10 / psy=1 / psy_rd=1.02:0.05 / mixed_ref=1 / me_range=32 / chroma_me=1 / trellis=2 / 8x8dct=1 / cqm=0 / deadzone=21,11 / fast_pskip=0 / chroma_qp_offset=-3 / threads=12 / lookahead_threads=3 / sliced_threads=0 / nr=0 / decimate=0 / interlaced=0 / bluray_compat=0 / constrained_intra=0 / bframes=10 / b_pyramid=2 / b_adapt=2 / b_bias=0 / direct=3 / weightb=1 / open_gop=0 / weightp=2 / keyint=240 / keyint_min=23 / scenecut=40 / intra_refresh=0 / rc=2pass / mbtree=0 / bitrate=2137 / ratetol=1.0 / qcomp=0.60 / qpmin=0 / qpmax=51 / qpstep=4 / cplxblur=20.0 / qblur=0.5 / ip_ratio=1.40 / pb_ratio=1.30 / aq=2:0.90
Language : English
Default : Yes
Forced : No
Color range : Limited
Color primaries : BT.709
Transfer characteristics : BT.709
Matrix coefficients : BT.709

Audio #1
ID : 2
Format : AC-3
Format/Info : Audio Coding 3
Mode extension : CM (complete main)
Format settings, Endianness : Big
Codec ID : A_AC3
Duration : 1 h 25 min
Bit rate mode : Constant
Bit rate : 192 kb/s
Channel(s) : 2 channels
Channel positions : Front: L R
Sampling rate : 48.0 kHz
Frame rate : 31.250 FPS (1536 spf)
Compression mode : Lossy
Stream size : 118 MiB (7%)
Title : MVO [HDRezka Studio]
Language : Russian
Default : Yes
Forced : No

Audio #2
ID : 3
Format : AC-3
Format/Info : Audio Coding 3
Mode extension : CM (complete main)
Format settings, Endianness : Big
Codec ID : A_AC3
Duration : 1 h 25 min
Bit rate mode : Constant
Bit rate : 448 kb/s
Channel(s) : 6 channels
Channel positions : Front: L C R, Side: L R, LFE
Sampling rate : 48.0 kHz
Frame rate : 31.250 FPS (1536 spf)
Compression mode : Lossy
Stream size : 275 MiB (16%)
Language : English
Default : No
Forced : No

Text #1
ID : 4
Format : UTF-8
Codec ID : S_TEXT/UTF8
Codec ID/Info : UTF-8 Plain Text
Title : Forced
Language : Russian
Default : Yes
Forced : No

Text #2
ID : 5
Format : UTF-8
Codec ID : S_TEXT/UTF8
Codec ID/Info : UTF-8 Plain Text
Language : English
Default : No
Forced : No

Menu
00:00:00.000 : en:Chapter 01
00:05:40.298 : en:Chapter 02
00:10:35.927 : en:Chapter 03
00:14:14.103 : en:Chapter 04
00:17:45.106 : en:Chapter 05
00:22:19.296 : en:Chapter 06
00:26:28.337 : en:Chapter 07
00:30:45.093 : en:Chapter 08
00:34:46.584 : en:Chapter 09
00:38:37.190 : en:Chapter 10
00:44:40.595 : en:Chapter 11
00:47:27.678 : en:Chapter 12
00:52:37.488 : en:Chapter 13
00:56:33.181 : en:Chapter 14
01:01:04.995 : en:Chapter 15
01:05:34.639 : en:Chapter 16
01:07:23.456 : en:Chapter 17
01:12:14.914 : en:Chapter 18
01:14:12.782 : en:Chapter 19
01:18:08.309 : en:Chapter 20
Релиз от:

Автор релиза: pb.wtf



Скачать Гринч через торрент https://d.radikal.ru/d27/1902/7b/8c7f037351c2.png Скачать фильм Гринч через торрент бесплантно в хорошем качестве Описание: Любой бы на месте Гринча позеленел и взбесился. Как порядочный интроверт, он живёт в тёмной пещере на самой вершине горы подальше ... 9.5 10 18
Info! Золотая раздача, скачанное не засчитывается.
Торрент: Зарегистрирован [2019-02-24 02:56] · скачан: 224 раз
Статус: T временная
Размер: 1.67 GB
Как cкачать? Как скачать Гринч через торрент | qTorrent

% Раздел Тема Автор DL S | L
Иностранные мультфильмы [ 1.82 GB ] Гринч / The Grinch [2018 мультфильм BDRip-AVC] - ExKinoRay Enigma2010 Скачать
1 | 0


Последний раз редактировалось: Enigma2010 (2019-02-24 02:56), всего редактировалось 1 раз

28-11-2019 20:33  

Отключить всю рекламу на сайте

03-02-2019 18:13 Гринч Скачать торрент  

Спасибо!pb.wtf





Последний раз редактировалось: Lecx (2019-03-02 15:33), всего редактировалось 1 раз

24-02-2019 02:57 Гринч Скачать торрент  

Замена на профессиональный перевод.pb.wtf



    Дорогой пользователь! Огромная просьба, поблагодарите релизера, оцените раздачу и оставьте свои комментарий, если Вы скачали Гринч через торрент бесплатно! Внесите свою лепту в развитие PiratBit!
    Комментировать посты могут только пользователи прошедшие не сложную регистрацию
    Показать сообщения:    

    Гринч через торрент
    Скачать бесплатно Гринч
    Гринч скачать торрент
    Гринч смотреть онлайн
    Cкачать фильм Гринч бесплатно
    Гринч скачать торрент в хорошем качестве
    Гринч смотреть онлайн бесплатно в хорошем качестве


    Вы не можете начинать темы
    Вы не можете отвечать на сообщения
    Вы не можете редактировать свои сообщения
    Вы не можете удалять свои сообщения
    Вы не можете голосовать в опросах
    Вы не можете прикреплять файлы к сообщениям
    Вы можете скачивать файлы