Ссылка на приватное зеркало всего за 1$. Внимание количество ограничено!!!

OK

1+1

iTunes

мы

OK

1

WEB-DLRip

Джокер

Пифагор

Ведьмак / The Witcher сериал

iTunes

ПШазам

ОК

Оно 2

iTunes

30
pack

Вам бонус

ВАЖНО

!!Акция!!

Alien_RageХит недели

RePack

Resident Evil 21

ИГРА 18+

pack

RePack

jed

RePack

fifa19

RePack

Assassins Creed: Odyssey

RePack

NEED FOR SPEED™ PAYBACK

4 сезон

9 сезон

Бесстыжие 9 сезон

Все сериалы

все сериалы на PB.wtf

RePack

FAR CRY 5
  

Убежище / Yuddham Sharanam (Кришна Маримуту) [2017, боевик, WEB-DL 720p] MVO ["Синема УС"] pb.wtf

Убежище через торрент pb.wtf

Размер: 4.69 GB | Добавлен: 11 мес. назад | Торрент скачан:21 раз
Скачать  

02-02-2019 18:40 Убежище Скачать торрент  

Убежище / Yuddham SharanamГод выпуска: 2017
Страна: Индия
Жанр: боевик
Продолжительность: 02:18:14
Перевод: Любительский (многоголосый) | "Синема УС"
Субтитры: отсутствуют

Режиссер: Кришна Маримуту

rating

В ролях:

Нага Чайтания, Лавания Трипати, Мадхусудхан Рао, Мурли Шарма, Рао Рамеш, Ревати

Описание:

Арджун - мечтатель, экспериментирующий со своей маркой дронов. Его родители Мурали Кришна и Сита Лакшми - добрые самаритяне, заботящиеся о больных и новорожденных детях. Его мать - врач, а отец - столп силы в его жизни. Парень живет со своими родителями и сестрами и влюбляется в медсестру Йодхику. А где-то, корумпированные политики, которые совершив аферу на крупную сумму, хотят отвлечь внимание людей с помощью серии взрывов. Найяк, гангстер с крупной мафиозной сетью, выставлен людьми политиков, чтобы спровоцировать взрывы. В день взрывов родители героя пропадают без вести. Когда Арджун отправляется на поиски своих пропавших родителей, он понимает, что в их жизни всегда было нечто большее, чем то, что бросается в глаза...

Качество: WEB-DL 720p
Формат: MKV

Видео: h.264, 4 469 Кбит/с, 1280x544
Аудио#1: Русский, (AC3, 2 ch, 384 Кбит/с)
скриншот  скриншот  скриншот  

Общее
Уникальный идентификатор : 252622444407198265364289226842789196501 (0xBE0D5022C98D70FF9AC2FC7FCBC532D5)
Полное имя : D:\Yuddham.Sharanam.2017.P.WEB-DL.72Op.mkv
Формат : Matroska
Версия формата : Version 2
Размер файла : 4,69 Гбайт
Продолжительность : 2 ч. 18 м.
Режим общего битрейта : Переменный
Общий поток : 4855 Кбит/сек
Дата кодирования : UTC 2019-02-01 14:21:03
Программа кодирования : mkvmerge v8.3.0 ('Over the Horizon') 64bit
Библиотека кодирования : libebml v1.3.1 + libmatroska v1.4.2

Видео
Идентификатор : 1
Формат : AVC
Формат/Информация : Advanced Video Codec
Профиль формата : High@L4.1
Параметр CABAC формата : Да
Параметр RefFrames формата : 4 кадра
Идентификатор кодека : V_MPEG4/ISO/AVC
Продолжительность : 2 ч. 18 м.
Вид битрейта : Переменный
Битрейт : 4469 Кбит/сек
Максимальный битрейт : 5000 Кбит/сек
Ширина : 1280 пикселей
Высота : 544 пикселя
Соотношение сторон : 2,35:1
Режим частоты кадров : Постоянный
Частота кадров : 23,976 (24000/1001) кадра/сек
Стандарт вещания : Component
Цветовое пространство : YUV
Субдискретизация насыщенности : 4:2:0
Битовая глубина : 8 бит
Тип развёртки : Прогрессивная
Бит/(Пиксели*Кадры) : 0.262
Размер потока : 4,22 Гбайт (90%)
Default : Да
Forced : Нет
Цветовой диапазон : Limited
Основные цвета : BT.709
Характеристики трансфера : BT.709
Коэффициенты матрицы : BT.709

Аудио
Идентификатор : 2
Формат : AC-3
Формат/Информация : Audio Coding 3
Расширение режима : CM (complete main)
Параметр Endianness формата : Big
Идентификатор кодека : A_AC3
Продолжительность : 2 ч. 18 м.
Вид битрейта : Постоянный
Битрейт : 384 Кбит/сек
Каналы : 2 канала
Расположение каналов : Front: L R
Частота : 48,0 КГц
Частота кадров : 31,250 кадров/сек (1536 spf)
Метод сжатия : С потерями
Размер потока : 380 Мбайт (8%)
Default : Да
Forced : Нет

pb.wtf



Скачать Убежище через торрент https://c.radikal.ru/c23/1902/ac/e81848a58d70.jpg Скачать фильм Убежище через торрент бесплантно в хорошем качестве Описание: Арджун - мечтатель, экспериментирующий со своей маркой дронов. Его родители Мурали Кришна и Сита Лакшми - добрые самаритяне, ... 7 10 3
Торрент: Зарегистрирован [2019-02-02 18:40] · скачан: 21 раз
Статус: T временная
Размер: 4.69 GB
Как cкачать? Как скачать Убежище через торрент | qTorrent

% Раздел Тема Автор DL S | L
T Фильмы (мультфильмы) cо спонсором показа (Новинки AVI/MKV) [ 2.06 GB ] Убежище / Yuddham Sharanam [2017 WEB-DLRip] MVO ["Синема УС"] bober100 Скачать
1 | 0
T Фильмы (мультфильмы) cо спонсором показа (Новинки AVI/MKV) [ 1.37 GB ] Убежище / Yuddham Sharanam [2017 WEB-DLRip] MVO ["Синема УС"] bober100 Скачать
1 | 1

28-11-2019 20:33  

Отключить всю рекламу на сайте

02-02-2019 19:35 Убежище Скачать торрент  

я этот трэш смотрет ьдаже не буду писецpb.wtf



03-02-2019 05:32 Убежище Скачать торрент  

Индийский боевик это помним кинотеатры pb.wtf



    Дорогой пользователь! Огромная просьба, поблагодарите релизера, оцените раздачу и оставьте свои комментарий, если Вы скачали Убежище через торрент бесплатно! Внесите свою лепту в развитие PiratBit!
    Комментировать посты могут только пользователи прошедшие не сложную регистрацию
    Показать сообщения:    

    Убежище через торрент
    Скачать бесплатно Убежище
    Убежище скачать торрент
    Убежище смотреть онлайн
    Cкачать фильм Убежище бесплатно
    Убежище скачать торрент в хорошем качестве
    Убежище смотреть онлайн бесплатно в хорошем качестве


    Вы не можете начинать темы
    Вы не можете отвечать на сообщения
    Вы не можете редактировать свои сообщения
    Вы не можете удалять свои сообщения
    Вы не можете голосовать в опросах
    Вы не можете прикреплять файлы к сообщениям
    Вы можете скачивать файлы