Ссылка на приватное зеркало всего за 1$. Внимание количество ограничено!!!

OK

1+1

iTunes

мы

OK

1

WEB-DLRip

Джокер

Пифагор

Ведьмак / The Witcher сериал

iTunes

ПШазам

ОК

Оно 2

iTunes

30
pack

Вам бонус

ВАЖНО

!!Акция!!

Alien_RageХит недели

RePack

Resident Evil 21

ИГРА 18+

pack

RePack

jed

RePack

fifa19

RePack

Assassins Creed: Odyssey

RePack

NEED FOR SPEED™ PAYBACK

4 сезон

9 сезон

Бесстыжие 9 сезон

Все сериалы

все сериалы на PB.wtf

RePack

FAR CRY 5
  

Под куполом / Under the Dome / Сезон: 1 / Серии: 1-13 из 13 (Джек Бендер) [2013, драма, триллер, фантастика, WEB-DL 1080p] MVO [Пифагор] pb.wtf

Под куполом через торрент pb.wtf

Размер: 28.46 GB | Добавлен: 11 мес. назад | Торрент скачан:37 раз
Скачать  

03-02-2019 04:45 Под куполом Скачать торрент  

Под куполом / Under the Dome Год выпуска: 2013
Страна: США
Жанр: фантастика, драма, ужасы
Продолжительность: ~00:42:00
Перевод: Профессиональный (многоголосый закадровый) | Пифагор
Субтитры: Russian (Forced, Full), English (Full)

Режиссёр: Джек Бендер, Нильс Арден Оплев, Кари Скогланд, Мигель Сапочник, Серджо Мимика-Геззан

В ролях:

Майк Фогель, Колин Форд, Аиша Хиндс, Александр Кох, Рашель Лефевр, Натали Мартинез, Дин Норрис, Джолин Парди, Бриттани Робертсон, Николас Стронг, Нед Беллами, Дэйл Рауль, Р. Кейт Харрис, Стив Болдуин, Шерри Боулинг, Кевин Сайзмор, Эндрю Фогель, Джеймс Алком, Линдс Эдвардс, Джефф Фэйи, Кристал Мартинез, Маккензи Линтц

Описание:

Обычным, пригожим осенним днем, город Честерс Миллз, штат Мэн, был внезапно отрезан от остального мира невидимым силовым барьером. Самолеты врезаются в купол и падают, пылая, с небес; садовнику отрезает силовым полем руку; люди, выехавшие в соседний город по делам, не могут вернуться к своим близким; автомобили взрываются от столкновения с куполом. Никто не понимает, что это за барьер, откуда он взялся и исчезнет ли он.



Качество: WEB-DL 1080p (Netflix)
Контейнер: MKV

Видео: MPEG-4 AVC, ~ 8000 kbps avg, 1920x1080, 23.976 fps
Аудио 1: [Русский] 48 kHz, AC3, 5.1 ch, ~384 kbps avg |Многоголосый закадровый, Пифагор|
Аудио 2: [Английский] 48 kHz, AC3, 5.1 ch, ~384 kbps avg


Реклама: Отсутствует
Релиз TeamHD - BenderBEST
Complete name : D:\Under.the.Dome.S01.1080p.NF.WEB-DL.Rus.Eng_THD\Under.the.Dome.S01E04.Outbreak.1080p.NF.WEB-DL.Rus.Eng_THD.mkv
Format : Matroska
Format version : Version 4 / Version 2
File size : 1.79 GiB
Duration : 41 min 58 s
Overall bit rate mode : Variable
Overall bit rate : 6 114 kb/s
Encoded date : UTC 2018-07-02 23:03:04
Writing application : mkvmerge v24.0.0 ('Beyond The Pale') 64-bit
Writing library : libebml v1.3.6 + libmatroska v1.4.9

Video
ID : 1
Format : AVC
Format/Info : Advanced Video Codec
Format profile : Main@L4
Format settings : CABAC / 3 Ref Frames
Format settings, CABAC : Yes
Format settings, RefFrames : 3 frames
Codec ID : V_MPEG4/ISO/AVC
Duration : 41 min 58 s
Bit rate mode : Variable
Bit rate : 5 360 kb/s
Maximum bit rate : 8 040 kb/s
Width : 1 920 pixels
Height : 1 080 pixels
Display aspect ratio : 16:9
Frame rate mode : Constant
Frame rate : 23.976 (24000/1001) FPS
Color space : YUV
Chroma subsampling : 4:2:0
Bit depth : 8 bits
Scan type : Progressive
Bits/(Pixel*Frame) : 0.108
Stream size : 1.57 GiB (87%)
Writing library : x264 core 118
Encoding settings : cabac=1 / ref=3 / deblock=1:0:0 / analyse=0x1:0x111 / me=umh / subme=10 / psy=1 / psy_rd=1.00:0.00 / mixed_ref=1 / me_range=24 / chroma_me=1 / trellis=2 / 8x8dct=0 / cqm=0 / deadzone=21,11 / fast_pskip=1 / chroma_qp_offset=-2 / threads=8 / sliced_threads=0 / nr=0 / decimate=1 / interlaced=0 / bluray_compat=0 / constrained_intra=0 / bframes=2 / b_pyramid=0 / b_adapt=2 / b_bias=0 / direct=3 / weightb=1 / open_gop=0 / weightp=2 / keyint=48 / keyint_min=25 / scenecut=0 / intra_refresh=0 / rc_lookahead=0 / rc=2pass / mbtree=1 / bitrate=5360 / ratetol=1.0 / qcomp=0.50 / qpmin=6 / qpmax=51 / qpstep=4 / cplxblur=20.0 / qblur=0.5 / vbv_maxrate=8040 / vbv_bufsize=10720 / nal_hrd=vbr / ip_ratio=1.40 / aq=1:1.00
Default : Yes
Forced : No

Audio #1
ID : 2
Format : AC-3
Format/Info : Audio Coding 3
Format settings, Endianness : Big
Codec ID : A_AC3
Duration : 41 min 58 s
Bit rate mode : Constant
Bit rate : 384 kb/s
Channel(s) : 6 channels
Channel positions : Front: L C R, Side: L R, LFE
Sampling rate : 48.0 kHz
Frame rate : 31.250 FPS (1536 SPF)
Bit depth : 16 bits
Compression mode : Lossy
Stream size : 115 MiB (6%)
Language : Russian
Service kind : Complete Main
Default : Yes
Forced : No

Audio #2
ID : 3
Format : AC-3
Format/Info : Audio Coding 3
Format settings, Endianness : Big
Codec ID : A_AC3
Duration : 41 min 58 s
Bit rate mode : Constant
Bit rate : 384 kb/s
Channel(s) : 6 channels
Channel positions : Front: L C R, Side: L R, LFE
Sampling rate : 48.0 kHz
Frame rate : 31.250 FPS (1536 SPF)
Bit depth : 16 bits
Compression mode : Lossy
Stream size : 115 MiB (6%)
Title : English
Language : English
Service kind : Complete Main
Default : No
Forced : No

Text #1
ID : 4
Format : UTF-8
Codec ID : S_TEXT/UTF8
Codec ID/Info : UTF-8 Plain Text
Duration : 30 min 30 s
Bit rate : 1 b/s
Count of elements : 8
Stream size : 242 Bytes (0%)
Title : Forced
Language : Russian
Default : Yes
Forced : Yes

Text #2
ID : 5
Format : UTF-8
Codec ID : S_TEXT/UTF8
Codec ID/Info : UTF-8 Plain Text
Duration : 40 min 49 s
Bit rate : 63 b/s
Count of elements : 744
Stream size : 18.9 KiB (0%)
Title : SDH
Language : English
Default : No
Forced : No

Text #3
ID : 6
Format : UTF-8
Codec ID : S_TEXT/UTF8
Codec ID/Info : UTF-8 Plain Text
Duration : 40 min 32 s
Bit rate : 90 b/s
Count of elements : 498
Stream size : 26.7 KiB (0%)
Language : Arabic
Default : No
Forced : No

Text #4
ID : 7
Format : UTF-8
Codec ID : S_TEXT/UTF8
Codec ID/Info : UTF-8 Plain Text
Duration : 40 min 32 s
Bit rate : 57 b/s
Count of elements : 514
Stream size : 16.9 KiB (0%)
Language : Danish
Default : No
Forced : No

Text #5
ID : 8
Format : UTF-8
Codec ID : S_TEXT/UTF8
Codec ID/Info : UTF-8 Plain Text
Duration : 40 min 33 s
Bit rate : 86 b/s
Count of elements : 529
Stream size : 25.8 KiB (0%)
Language : Greek
Default : No
Forced : No

Text #6
ID : 9
Format : UTF-8
Codec ID : S_TEXT/UTF8
Codec ID/Info : UTF-8 Plain Text
Duration : 40 min 32 s
Bit rate : 61 b/s
Count of elements : 532
Stream size : 18.3 KiB (0%)
Language : Spanish
Default : No
Forced : No

Text #7
ID : 10
Format : UTF-8
Codec ID : S_TEXT/UTF8
Codec ID/Info : UTF-8 Plain Text
Duration : 40 min 32 s
Bit rate : 49 b/s
Count of elements : 535
Stream size : 14.6 KiB (0%)
Title : European
Language : Spanish
Default : No
Forced : No

Text #8
ID : 11
Format : UTF-8
Codec ID : S_TEXT/UTF8
Codec ID/Info : UTF-8 Plain Text
Duration : 40 min 30 s
Bit rate : 55 b/s
Count of elements : 372
Stream size : 16.4 KiB (0%)
Language : Finnish
Default : No
Forced : No

Text #9
ID : 12
Format : UTF-8
Codec ID : S_TEXT/UTF8
Codec ID/Info : UTF-8 Plain Text
Duration : 40 min 10 s
Bit rate : 57 b/s
Count of elements : 526
Stream size : 16.9 KiB (0%)
Language : French
Default : No
Forced : No

Text #10
ID : 13
Format : UTF-8
Codec ID : S_TEXT/UTF8
Codec ID/Info : UTF-8 Plain Text
Duration : 41 min 30 s
Bit rate : 88 b/s
Count of elements : 512
Stream size : 26.8 KiB (0%)
Language : Hebrew
Default : No
Forced : No

Text #11
ID : 14
Format : UTF-8
Codec ID : S_TEXT/UTF8
Codec ID/Info : UTF-8 Plain Text
Duration : 40 min 32 s
Bit rate : 63 b/s
Count of elements : 530
Stream size : 18.9 KiB (0%)
Language : Italian
Default : No
Forced : No

Text #12
ID : 15
Format : UTF-8
Codec ID : S_TEXT/UTF8
Codec ID/Info : UTF-8 Plain Text
Duration : 40 min 32 s
Bit rate : 65 b/s
Count of elements : 520
Stream size : 19.5 KiB (0%)
Language : Korean
Default : No
Forced : No

Text #13
ID : 16
Format : UTF-8
Codec ID : S_TEXT/UTF8
Codec ID/Info : UTF-8 Plain Text
Duration : 40 min 32 s
Bit rate : 55 b/s
Count of elements : 511
Stream size : 16.4 KiB (0%)
Language : Norwegian Bokmal
Default : No
Forced : No

Text #14
ID : 17
Format : UTF-8
Codec ID : S_TEXT/UTF8
Codec ID/Info : UTF-8 Plain Text
Duration : 40 min 32 s
Bit rate : 55 b/s
Count of elements : 515
Stream size : 16.4 KiB (0%)
Language : Dutch
Default : No
Forced : No

Text #15
ID : 18
Format : UTF-8
Codec ID : S_TEXT/UTF8
Codec ID/Info : UTF-8 Plain Text
Duration : 40 min 32 s
Bit rate : 51 b/s
Count of elements : 530
Stream size : 15.3 KiB (0%)
Language : Polish
Default : No
Forced : No

Text #16
ID : 19
Format : UTF-8
Codec ID : S_TEXT/UTF8
Codec ID/Info : UTF-8 Plain Text
Duration : 40 min 32 s
Bit rate : 57 b/s
Count of elements : 533
Stream size : 17.1 KiB (0%)
Language : Portuguese
Default : No
Forced : No

Text #17
ID : 20
Format : UTF-8
Codec ID : S_TEXT/UTF8
Codec ID/Info : UTF-8 Plain Text
Duration : 40 min 32 s
Bit rate : 60 b/s
Count of elements : 534
Stream size : 17.9 KiB (0%)
Title : Brazilian
Language : Portuguese
Default : No
Forced : No

Text #18
ID : 21
Format : UTF-8
Codec ID : S_TEXT/UTF8
Codec ID/Info : UTF-8 Plain Text
Duration : 40 min 30 s
Bit rate : 55 b/s
Count of elements : 606
Stream size : 16.5 KiB (0%)
Language : Romanian
Default : No
Forced : No

Text #19
ID : 22
Format : UTF-8
Codec ID : S_TEXT/UTF8
Codec ID/Info : UTF-8 Plain Text
Duration : 40 min 32 s
Bit rate : 101 b/s
Count of elements : 548
Stream size : 30.1 KiB (0%)
Language : Russian
Default : No
Forced : No

Text #20
ID : 23
Format : UTF-8
Codec ID : S_TEXT/UTF8
Codec ID/Info : UTF-8 Plain Text
Duration : 40 min 32 s
Bit rate : 58 b/s
Count of elements : 512
Stream size : 17.4 KiB (0%)
Language : Swedish
Default : No
Forced : No

Text #21
ID : 24
Format : UTF-8
Codec ID : S_TEXT/UTF8
Codec ID/Info : UTF-8 Plain Text
Duration : 40 min 34 s
Bit rate : 137 b/s
Count of elements : 519
Stream size : 41.0 KiB (0%)
Language : Thai
Default : No
Forced : No

Text #22
ID : 25
Format : UTF-8
Codec ID : S_TEXT/UTF8
Codec ID/Info : UTF-8 Plain Text
Duration : 40 min 38 s
Bit rate : 56 b/s
Count of elements : 576
Stream size : 17.0 KiB (0%)
Language : Turkish
Default : No
Forced : No

Text #23
ID : 26
Format : UTF-8
Codec ID : S_TEXT/UTF8
Codec ID/Info : UTF-8 Plain Text
Duration : 40 min 32 s
Bit rate : 46 b/s
Count of elements : 595
Stream size : 13.9 KiB (0%)
Title : Simplified
Language : Chinese
Default : No
Forced : No

Text #24
ID : 27
Format : UTF-8
Codec ID : S_TEXT/UTF8
Codec ID/Info : UTF-8 Plain Text
Duration : 40 min 32 s
Bit rate : 47 b/s
Count of elements : 596
Stream size : 14.1 KiB (0%)
Title : Traditional
Language : Chinese
Default : No
Forced : No
pb.wtf



Скачать Под куполом через торрент http://c.radikal.ru/c22/1809/20/420191caa399.jpg Скачать фильм Под куполом через торрент бесплантно в хорошем качестве Описание: Обычным, пригожим осенним днем, город Честерс Миллз, штат Мэн, был внезапно отрезан от остального мира невидимым силовым ... 10 10 5
Торрент: Зарегистрирован [2019-02-03 04:45] · скачан: 37 раз
Статус: √ проверено
Размер: 28.46 GB
Как cкачать? Как скачать Под куполом через торрент | qTorrent

% Раздел Тема Автор DL S | L
Под куполом [ 29.27 GB ] Под куполом / Under the Dome / Сезон: 3 / Серии: 1-13 из 13 [2015 WEB-DL 1080p] MVO [Пифагор] bober100 Скачать
1 | 0
Под куполом [ 27.39 GB ] Под куполом / Under the Dome / Сезон: 2 / Серии: 1-13 из 13 [2014 WEB-DL 1080p] MVO [Пифагор] bober100 Скачать
1 | 0
Под куполом [ 7.1 GB ] Под куполом / Under the Dome / Сезон: 1 / Серии: 1-13 из 13 [2013 WEB-DLRip] MVO +Original Assasinca Скачать
1 | 0
Под куполом [ 16.2 GB ] Под куполом / Under the Dome / Сезон: 3 / Серии: 1-13 из 13 [2015 WEB-DLRip 720p] MVO 10oN Скачать
1 | 0
Под куполом [ 22.22 GB ] Под куполом / Under the Dome / Сезон: 3 / Серии 1-13 из 13 [2015 WEB-DL 1080p] MVO [BaibaKo] GEKADOL Скачать
1 | 0
Под куполом [ 17.64 GB ] Под куполом / Under the Dome / Сезон: 3 / Серии 1-13 из 13 [2015 WEB-DL 720p] MVO [BaibaKo] GEKADOL Скачать
1 | 0
Под куполом [ 6.94 GB ] Под куполом / Under the Dome / Сезон: 3 / Серии 1-13 из 13 [2015 WEB-DLRip] MVO [BaibaKo] GEKADOL Скачать
1 | 0

28-11-2019 20:33  

Отключить всю рекламу на сайте


    Дорогой пользователь! Огромная просьба, поблагодарите релизера, оцените раздачу и оставьте свои комментарий, если Вы скачали Под куполом через торрент бесплатно! Внесите свою лепту в развитие PiratBit!
    Комментировать посты могут только пользователи прошедшие не сложную регистрацию
    Показать сообщения:    

    Под куполом через торрент
    Скачать бесплатно Под куполом
    Под куполом скачать торрент
    Под куполом смотреть онлайн
    Cкачать фильм Под куполом бесплатно
    Под куполом скачать торрент в хорошем качестве
    Под куполом смотреть онлайн бесплатно в хорошем качестве


    Вы не можете начинать темы
    Вы не можете отвечать на сообщения
    Вы не можете редактировать свои сообщения
    Вы не можете удалять свои сообщения
    Вы не можете голосовать в опросах
    Вы не можете прикреплять файлы к сообщениям
    Вы можете скачивать файлы