Ссылка на приватное зеркало всего за 1$. Внимание количество ограничено!!!

iTunes

iTunes

iTunes

1

iTunes

iTunes

iTunes

WEBRip

iTunes

30
pack

$ от Little Big

ВАЖНО

!!Акция!!

Alien_RageХит недели

RePack

Resident Evil 21

ИГРА 18+

pack

RePack

jed

!!Акция!!

Alien_Rage

RePack

fifa19

RePack

Assassins Creed: Odyssey

RePack

NEED FOR SPEED™ PAYBACK

4 сезон

9 сезон

Бесстыжие 9 сезон

Все сериалы

все сериалы на PB.wtf

RePack

FAR CRY 5
  

Под куполом / Under the Dome / Сезон: 3 / Серии: 1-13 из 13 (Джек Бендер) [2015, драма, триллер, фантастика, WEB-DL 1080p] MVO [Пифагор] pb.wtf

Под куполом через торрент pb.wtf

Размер: 29.27 GB | Добавлен: 1 год 6 мес. назад | Торрент скачан:60 раз
Скачать  

03-02-2019 04:51 Под куполом Скачать торрент  

Под куполом / Under the Dome Год выпуска: 2015
Страна: США
Жанр: фантастика, драма, ужасы
Продолжительность: ~00:42:00
Перевод: Профессиональный (многоголосый закадровый) | Пифагор
Субтитры: Russian (Forced, Full), English (Full)

Режиссёр: Джек Бендер, Нильс Арден Оплев, Кари Скогланд, Мигель Сапочник, Серджо Мимика-Геззан

В ролях:

Майк Фогель, Колин Форд, Аиша Хиндс, Александр Кох, Рашель Лефевр, Натали Мартинез, Дин Норрис, Джолин Парди, Бриттани Робертсон, Николас Стронг, Нед Беллами, Дэйл Рауль, Р. Кейт Харрис, Стив Болдуин, Шерри Боулинг, Кевин Сайзмор, Эндрю Фогель, Джеймс Алком, Линдс Эдвардс, Джефф Фэйи, Кристал Мартинез, Маккензи Линтц

Описание:

Обычным, пригожим осенним днем, город Честерс Миллз, штат Мэн, был внезапно отрезан от остального мира невидимым силовым барьером. Самолеты врезаются в купол и падают, пылая, с небес; садовнику отрезает силовым полем руку; люди, выехавшие в соседний город по делам, не могут вернуться к своим близким; автомобили взрываются от столкновения с куполом. Никто не понимает, что это за барьер, откуда он взялся и исчезнет ли он.



Качество: WEB-DL 1080p (Netflix)
Контейнер: MKV

Видео: MPEG-4 AVC, ~ 8000 kbps avg, 1920x1080, 23.976 fps
Аудио 1: [Русский] 48 kHz, AC3, 5.1 ch, ~384 kbps avg |Многоголосый закадровый, Пифагор|
Аудио 2: [Английский] 48 kHz, AC3, 5.1 ch, ~384 kbps avg


Реклама: Отсутствует
Релиз TeamHD - BenderBEST
Общее
Уникальный идентификатор : 232570995839661811580870704449558914348 (0xAEF78B64E64F1BB627EDC75CBCBFA52C)
Полное имя : S:\Under.the.Dome.S03.1080p.NF.WEB-DL.Rus.Eng_THD\Under.the.Dome.S03E01.Move.On.1080p.NF.WEB-DL.Rus.Eng_THD.mkv
Формат : Matroska
Версия формата : Version 4 / Version 2
Размер файла : 2,41 Гбайт
Продолжительность : 41 м.
Режим общего битрейта : Переменный
Общий поток : 8236 Кбит/сек
Дата кодирования : UTC 2018-07-03 10:56:00
Программа кодирования : mkvmerge v24.0.0 ('Beyond The Pale') 64-bit
Библиотека кодирования : libebml v1.3.6 + libmatroska v1.4.9

Видео
Идентификатор : 1
Формат : AVC
Формат/Информация : Advanced Video Codec
Профиль формата : Main@L4
Параметр CABAC формата : Да
Параметр ReFrames формата : 3 кадра
Идентификатор кодека : V_MPEG4/ISO/AVC
Продолжительность : 41 м.
Вид битрейта : Переменный
Битрейт : 7500 Кбит/сек
Максимальный битрейт : 11,2 Мбит/сек
Ширина : 1920 пикселей
Высота : 1080 пикселей
Соотношение сторон : 16:9
Режим частоты кадров : Постоянный
Частота кадров : 23,976 (24000/1001) кадра/сек
Цветовое пространство : YUV
Субдискретизация насыщенности : 4:2:0
Битовая глубина : 8 бит
Тип развёртки : Прогрессивная
Бит/(Пиксели*Кадры) : 0.151
Размер потока : 2,18 Гбайт (91%)
Библиотека кодирования : x264 core 118
Настройки программы : cabac=1 / ref=3 / deblock=1:0:0 / analyse=0x1:0x111 / me=umh / subme=10 / psy=1 / psy_rd=1.00:0.00 / mixed_ref=1 / me_range=24 / chroma_me=1 / trellis=2 / 8x8dct=0 / cqm=0 / deadzone=21,11 / fast_pskip=1 / chroma_qp_offset=-2 / threads=8 / sliced_threads=0 / nr=0 / decimate=1 / interlaced=0 / bluray_compat=0 / constrained_intra=0 / bframes=2 / b_pyramid=0 / b_adapt=2 / b_bias=0 / direct=3 / weightb=1 / open_gop=0 / weightp=2 / keyint=48 / keyint_min=25 / scenecut=0 / intra_refresh=0 / rc_lookahead=0 / rc=2pass / mbtree=1 / bitrate=7500 / ratetol=1.0 / qcomp=0.50 / qpmin=6 / qpmax=51 / qpstep=4 / cplxblur=20.0 / qblur=0.5 / vbv_maxrate=11250 / vbv_bufsize=15000 / nal_hrd=vbr / ip_ratio=1.40 / aq=1:1.00
Default : Да
Forced : Нет

Аудио #1
Идентификатор : 2
Формат : AC-3
Формат/Информация : Audio Coding 3
Расширение режима : CM (complete main)
Параметр Endianness формата : Big
Идентификатор кодека : A_AC3
Продолжительность : 41 м.
Вид битрейта : Постоянный
Битрейт : 384 Кбит/сек
Каналы : 6 каналов
Расположение каналов : Front: L C R, Side: L R, LFE
Частота : 48,0 КГц
Частота кадров : 31,250 кадров/сек (1536 spf)
Метод сжатия : С потерями
Размер потока : 115 Мбайт (5%)
Язык : Russian
Default : Да
Forced : Нет

Аудио #2
Идентификатор : 3
Формат : AC-3
Формат/Информация : Audio Coding 3
Расширение режима : CM (complete main)
Параметр Endianness формата : Big
Идентификатор кодека : A_AC3
Продолжительность : 41 м.
Вид битрейта : Постоянный
Битрейт : 384 Кбит/сек
Каналы : 6 каналов
Расположение каналов : Front: L C R, Side: L R, LFE
Частота : 48,0 КГц
Частота кадров : 31,250 кадров/сек (1536 spf)
Метод сжатия : С потерями
Размер потока : 115 Мбайт (5%)
Заголовок : English
Язык : English
Default : Нет
Forced : Нет

Текст #1
Идентификатор : 4
Формат : UTF-8
Идентификатор кодека : S_TEXT/UTF8
Идентификатор кодека/Информация : UTF-8 Plain Text
Продолжительность : 17 м.
Битрейт : 0 бит/сек
Count of elements : 3
Размер потока : 89,0 байт (0%)
Заголовок : Forced
Язык : Russian
Default : Да
Forced : Да

Текст #2
Идентификатор : 5
Формат : UTF-8
Идентификатор кодека : S_TEXT/UTF8
Идентификатор кодека/Информация : UTF-8 Plain Text
Продолжительность : 40 м.
Битрейт : 62 бит/сек
Count of elements : 736
Размер потока : 18,8 Кбайт (0%)
Заголовок : SDH
Язык : English
Default : Нет
Forced : Нет

Текст #3
Идентификатор : 6
Формат : UTF-8
Идентификатор кодека : S_TEXT/UTF8
Идентификатор кодека/Информация : UTF-8 Plain Text
Продолжительность : 40 м.
Битрейт : 87 бит/сек
Count of elements : 558
Размер потока : 26,2 Кбайт (0%)
Язык : Arabic
Default : Нет
Forced : Нет

Текст #4
Идентификатор : 7
Формат : UTF-8
Идентификатор кодека : S_TEXT/UTF8
Идентификатор кодека/Информация : UTF-8 Plain Text
Продолжительность : 40 м.
Битрейт : 54 бит/сек
Count of elements : 439
Размер потока : 16,3 Кбайт (0%)
Язык : Danish
Default : Нет
Forced : Нет

Текст #5
Идентификатор : 8
Формат : UTF-8
Идентификатор кодека : S_TEXT/UTF8
Идентификатор кодека/Информация : UTF-8 Plain Text
Продолжительность : 41 м.
Битрейт : 90 бит/сек
Count of elements : 504
Размер потока : 27,4 Кбайт (0%)
Язык : Greek
Default : Нет
Forced : Нет

Текст #6
Идентификатор : 9
Формат : UTF-8
Идентификатор кодека : S_TEXT/UTF8
Идентификатор кодека/Информация : UTF-8 Plain Text
Продолжительность : 40 м.
Битрейт : 52 бит/сек
Count of elements : 505
Размер потока : 15,6 Кбайт (0%)
Язык : Spanish
Default : Нет
Forced : Нет

Текст #7
Идентификатор : 10
Формат : UTF-8
Идентификатор кодека : S_TEXT/UTF8
Идентификатор кодека/Информация : UTF-8 Plain Text
Продолжительность : 40 м.
Битрейт : 55 бит/сек
Count of elements : 489
Размер потока : 16,7 Кбайт (0%)
Заголовок : European
Язык : Spanish
Default : Нет
Forced : Нет

Текст #8
Идентификатор : 11
Формат : UTF-8
Идентификатор кодека : S_TEXT/UTF8
Идентификатор кодека/Информация : UTF-8 Plain Text
Продолжительность : 40 м.
Битрейт : 56 бит/сек
Count of elements : 448
Размер потока : 17,1 Кбайт (0%)
Язык : Finnish
Default : Нет
Forced : Нет

Текст #9
Идентификатор : 12
Формат : UTF-8
Идентификатор кодека : S_TEXT/UTF8
Идентификатор кодека/Информация : UTF-8 Plain Text
Продолжительность : 39 м.
Битрейт : 61 бит/сек
Count of elements : 516
Размер потока : 18,0 Кбайт (0%)
Язык : French
Default : Нет
Forced : Нет

Текст #10
Идентификатор : 13
Формат : UTF-8
Идентификатор кодека : S_TEXT/UTF8
Идентификатор кодека/Информация : UTF-8 Plain Text
Продолжительность : 41 м.
Битрейт : 86 бит/сек
Count of elements : 479
Размер потока : 26,2 Кбайт (0%)
Язык : Hebrew
Default : Нет
Forced : Нет

Текст #11
Идентификатор : 14
Формат : UTF-8
Идентификатор кодека : S_TEXT/UTF8
Идентификатор кодека/Информация : UTF-8 Plain Text
Продолжительность : 40 м.
Битрейт : 61 бит/сек
Count of elements : 490
Размер потока : 18,5 Кбайт (0%)
Язык : Italian
Default : Нет
Forced : Нет

Текст #12
Идентификатор : 15
Формат : UTF-8
Идентификатор кодека : S_TEXT/UTF8
Идентификатор кодека/Информация : UTF-8 Plain Text
Продолжительность : 40 м.
Битрейт : 55 бит/сек
Count of elements : 519
Размер потока : 16,7 Кбайт (0%)
Язык : Korean
Default : Нет
Forced : Нет

Текст #13
Идентификатор : 16
Формат : UTF-8
Идентификатор кодека : S_TEXT/UTF8
Идентификатор кодека/Информация : UTF-8 Plain Text
Продолжительность : 40 м.
Битрейт : 52 бит/сек
Count of elements : 457
Размер потока : 15,8 Кбайт (0%)
Язык : Norwegian Bokmal
Default : Нет
Forced : Нет

Текст #14
Идентификатор : 17
Формат : UTF-8
Идентификатор кодека : S_TEXT/UTF8
Идентификатор кодека/Информация : UTF-8 Plain Text
Продолжительность : 40 м.
Битрейт : 52 бит/сек
Count of elements : 470
Размер потока : 15,7 Кбайт (0%)
Язык : Dutch
Default : Нет
Forced : Нет

Текст #15
Идентификатор : 18
Формат : UTF-8
Идентификатор кодека : S_TEXT/UTF8
Идентификатор кодека/Информация : UTF-8 Plain Text
Продолжительность : 40 м.
Битрейт : 50 бит/сек
Count of elements : 489
Размер потока : 15,1 Кбайт (0%)
Язык : Polish
Default : Нет
Forced : Нет

Текст #16
Идентификатор : 19
Формат : UTF-8
Идентификатор кодека : S_TEXT/UTF8
Идентификатор кодека/Информация : UTF-8 Plain Text
Продолжительность : 40 м.
Битрейт : 57 бит/сек
Count of elements : 490
Размер потока : 17,4 Кбайт (0%)
Язык : Portuguese
Default : Нет
Forced : Нет

Текст #17
Идентификатор : 20
Формат : UTF-8
Идентификатор кодека : S_TEXT/UTF8
Идентификатор кодека/Информация : UTF-8 Plain Text
Продолжительность : 40 м.
Битрейт : 54 бит/сек
Count of elements : 482
Размер потока : 16,4 Кбайт (0%)
Заголовок : Brazilian
Язык : Portuguese
Default : Нет
Forced : Нет

Текст #18
Идентификатор : 21
Формат : UTF-8
Идентификатор кодека : S_TEXT/UTF8
Идентификатор кодека/Информация : UTF-8 Plain Text
Продолжительность : 41 м.
Битрейт : 58 бит/сек
Count of elements : 536
Размер потока : 17,6 Кбайт (0%)
Язык : Romanian
Default : Нет
Forced : Нет

Текст #19
Идентификатор : 22
Формат : UTF-8
Идентификатор кодека : S_TEXT/UTF8
Идентификатор кодека/Информация : UTF-8 Plain Text
Продолжительность : 40 м.
Битрейт : 98 бит/сек
Count of elements : 494
Размер потока : 29,5 Кбайт (0%)
Язык : Russian
Default : Нет
Forced : Нет

Текст #20
Идентификатор : 23
Формат : UTF-8
Идентификатор кодека : S_TEXT/UTF8
Идентификатор кодека/Информация : UTF-8 Plain Text
Продолжительность : 40 м.
Битрейт : 57 бит/сек
Count of elements : 480
Размер потока : 17,3 Кбайт (0%)
Язык : Swedish
Default : Нет
Forced : Нет

Текст #21
Идентификатор : 24
Формат : UTF-8
Идентификатор кодека : S_TEXT/UTF8
Идентификатор кодека/Информация : UTF-8 Plain Text
Продолжительность : 41 м.
Битрейт : 126 бит/сек
Count of elements : 471
Размер потока : 38,1 Кбайт (0%)
Язык : Thai
Default : Нет
Forced : Нет

Текст #22
Идентификатор : 25
Формат : UTF-8
Идентификатор кодека : S_TEXT/UTF8
Идентификатор кодека/Информация : UTF-8 Plain Text
Продолжительность : 40 м.
Битрейт : 60 бит/сек
Count of elements : 529
Размер потока : 18,1 Кбайт (0%)
Язык : Turkish
Default : Нет
Forced : Нет

Текст #23
Идентификатор : 26
Формат : UTF-8
Идентификатор кодека : S_TEXT/UTF8
Идентификатор кодека/Информация : UTF-8 Plain Text
Продолжительность : 40 м.
Битрейт : 49 бит/сек
Count of elements : 546
Размер потока : 14,8 Кбайт (0%)
Заголовок : Simplified
Язык : Chinese
Default : Нет
Forced : Нет

Текст #24
Идентификатор : 27
Формат : UTF-8
Идентификатор кодека : S_TEXT/UTF8
Идентификатор кодека/Информация : UTF-8 Plain Text
Продолжительность : 40 м.
Битрейт : 50 бит/сек
Count of elements : 546
Размер потока : 15,2 Кбайт (0%)
Заголовок : Traditional
Язык : Chinese
Default : Нет
Forced : Нет
pb.wtf



Скачать Под куполом через торрент http://a.radikal.ru/a35/1809/b5/a0f35cfa9e02.jpg Скачать фильм Под куполом через торрент бесплантно в хорошем качестве Описание: Обычным, пригожим осенним днем, город Честерс Миллз, штат Мэн, был внезапно отрезан от остального мира невидимым силовым ... 10 10 3
Торрент: Зарегистрирован [2019-02-03 04:51] · скачан: 60 раз
Статус: √ проверено
Размер: 29.27 GB
Как cкачать? Как скачать Под куполом через торрент | qTorrent

% Раздел Тема Автор DL S | L
Под куполом [ 16.2 GB ] Под куполом / Under the Dome / Сезон: 3 / Серии: 1-13 из 13 [2015 WEB-DLRip 720p] MVO 10oN Скачать
1 | 0
Под куполом [ 22.22 GB ] Под куполом / Under the Dome / Сезон: 3 / Серии 1-13 из 13 [2015 WEB-DL 1080p] MVO [BaibaKo] GEKADOL Скачать
1 | 0
Под куполом [ 17.64 GB ] Под куполом / Under the Dome / Сезон: 3 / Серии 1-13 из 13 [2015 WEB-DL 720p] MVO [BaibaKo] GEKADOL Скачать
1 | 0
Под куполом [ 6.94 GB ] Под куполом / Under the Dome / Сезон: 3 / Серии 1-13 из 13 [2015 WEB-DLRip] MVO [BaibaKo] GEKADOL Скачать
1 | 0

28-11-2019 20:33  

Отключить всю рекламу на сайте

    Дорогой пользователь! Огромная просьба, поблагодарите релизера, оцените раздачу и оставьте свои комментарий, если Вы скачали Под куполом через торрент бесплатно! Внесите свою лепту в развитие PiratBit!
    Комментировать посты могут только пользователи прошедшие не сложную регистрацию
    Показать сообщения:    

    Под куполом через торрент
    Скачать бесплатно Под куполом
    Под куполом скачать торрент
    Под куполом смотреть онлайн
    Cкачать фильм Под куполом бесплатно
    Под куполом скачать торрент в хорошем качестве
    Под куполом смотреть онлайн бесплатно в хорошем качестве


    Вы не можете начинать темы
    Вы не можете отвечать на сообщения
    Вы не можете редактировать свои сообщения
    Вы не можете удалять свои сообщения
    Вы не можете голосовать в опросах
    Вы не можете прикреплять файлы к сообщениям
    Вы можете скачивать файлы