2 сезон

iTunes

MVO

1

2 сезон

iTunes

iTunes

1 сезон

RePack

30

Ultimate

ВАЖНО

ИГРА 18+

pack

RePack

MK11
pack

Легкие деньги

RePack

jed

RePack

fifa19

RePack

RDR2

RePack

NEED FOR SPEED™ PAYBACK

4 сезон

9 сезон

Бесстыжие 9 сезон

Все сериалы

все сериалы на PB.wtf

RePack

FAR CRY 5

Anonymous, доброй ночи, мы не успеваем собрать деньги на оплату серверов за декабрь и январь, помогите нам пожалуйста в это трудное время. В качестве благодарности мы отключим Вам всю рекламу на сайте (укажите свой ник в строку Ваше имя)!

×
  
Magnet ссылка

Дитя во времени / The Child in Time (Джулиан Фарино) [2017, Драма, BDRip] MVO [Первый канал] pb.wtf

Дитя во времени через торрент pb.wtf

Размер: 1.46 GB | Добавлен: 1 год 11 мес. назад | Торрент скачан:282 раза
Скачать  

03-02-2019 05:01 Дитя во времени Скачать торрент  

Дитя во времени / The Child in Time
Год выпуска: 2017
Страна: Великобритания
Жанр: Драма
Продолжительность: 01:29:37
Перевод: Профессиональный (многоголосый) | Первый канал
Субтитры: русские, английские / отдельными файлами

Режиссер: Джулиан Фарино

rating

В ролях:

Бенедикт Камбербэтч, Келли Макдоналд, Стивен Кэмпбелл Мур, Эллиот Леви, Саския Ривз, Джон Хопкинс, Анна Маделей, Люси Лиманн, Джеральдин Александр, Лоуренс Спэллман

Описание:

Однажды неожиданно исчезает четырёхлетняя дочь успешного детского писателя Стивена Льюиса. Два года спустя после трагедии, отчаявшись найти ребенка, Льюис пытается смириться с произошедшим и начать жить заново самостоятельно, поскольку жена ушла от него, а друзья борются с собственными демонами.

Качество: BDRip
Формат: AVI

Видео: 720x400 (16:9), 25.000 fps, XviD build 67 ~1 745 kbps avg
Аудио#1: 48.0 kHz, AC3 Dolby Digital, 2/0 (L,R) ch, ~192 kbps | RUS / Первый канал
Аудио#2: 48.0 kHz, AC3 Dolby Digital, 3/2 (L,C,R,l,r) + LFE ch, ~384 kbps | ENG
скриншот  скриншот  скриншот  

General
Полное имя : The.Child.in.Time.2017.BDRip-ylnian.avi
Формат : AVI
Формат/Информация : Audio Video Interleave
Размер файла : 1,46 Гбайт
Продолжительность : 1 ч. 29 м.
Общий поток : 2335 Кбит/сек
Программа кодирования : VirtualDubMod 1.5.10.3 | www.virtualdub-fr.org || (build 2550/release)
Библиотека кодирования : VirtualDubMod build 2550/release

Видео
Идентификатор : 0
Формат : MPEG-4 Visual
Профиль формата : Advanced Simple@L5
Настройки формата : BVOP1 / Custom Matrix
Параметр BVOP формата : 1
Параметр QPel формата : Нет
Параметр GMC формата : Без точки перехода
Параметр матрицы формата : Выборочная
Идентификатор кодека : XVID
Идентификатор кодека/Подсказка : XviD
Продолжительность : 1 ч. 29 м.
Битрейт : 1745 Кбит/сек
Ширина : 720 пикселей
Высота : 400 пикселей
Соотношение сторон : 16:9
Частота кадров : 25,000 кадров/сек
Цветовое пространство : YUV
Субдискретизация насыщенности : 4:2:0
Битовая глубина : 8 бит
Тип развёртки : Прогрессивная
Метод сжатия : С потерями
Бит/(Пиксели*Кадры) : 0.242
Размер потока : 1,09 Гбайт (75%)
Библиотека кодирования : XviD 67

Аудио #1
Идентификатор : 1
Формат : AC-3
Формат/Информация : Audio Coding 3
Коммерческое название : Dolby Digital
Идентификатор кодека : 2000
Продолжительность : 1 ч. 29 м.
Вид битрейта : Постоянный
Битрейт : 192 Кбит/сек
Каналы : 2 канала
Channel layout : L R
Частота : 48,0 КГц
Частота кадров : 31,250 кадров/сек (1536 SPF)
Битовая глубина : 16 бит
Метод сжатия : С потерями
Размер потока : 123 Мбайт (8%)
Выравнивание : Разделение по промежуткам
Продолжительность промежутка : 40 мс. (1,00 видеокадр)
Время предзагрузки промежутка : 500 мс.
Заголовок : RUS - MVO - 1 kanal

Аудио #2
Идентификатор : 2
Формат : AC-3
Формат/Информация : Audio Coding 3
Коммерческое название : Dolby Digital
Идентификатор кодека : 2000
Продолжительность : 1 ч. 29 м.
Вид битрейта : Постоянный
Битрейт : 384 Кбит/сек
Каналы : 6 каналов
Channel layout : L R C LFE Ls Rs
Частота : 48,0 КГц
Частота кадров : 31,250 кадров/сек (1536 SPF)
Битовая глубина : 16 бит
Метод сжатия : С потерями
Размер потока : 246 Мбайт (16%)
Выравнивание : Разделение по промежуткам
Продолжительность промежутка : 40 мс. (1,00 видеокадр)
Время предзагрузки промежутка : 500 мс.
Заголовок : Original

Общее
Полное имя : The.Child.in.Time.2017.BDRip-ylnian.rus.srt
Формат : SubRip
Размер файла : 76,9 Кбайт

Текст
Формат : SubRip
Метод сжатия : Без потерь

Общее
Полное имя : The.Child.in.Time.2017.BDRip-ylnian_eng.srt
Формат : SubRip
Размер файла : 76,1 Кбайт

Текст
Формат : SubRip
Метод сжатия : Без потерь

pb.wtf



Скачать Дитя во времени через торрент http://img12.lostpic.net/2018/06/02/b45aa5c0827c78493bfdb108eca0f661.jpg Скачать фильм Дитя во времени через торрент бесплантно в хорошем качестве Описание: Однажды неожиданно исчезает четырёхлетняя дочь успешного детского писателя Стивена Льюиса. Два года спустя после трагедии, ... 10 10 10
Торрент: Зарегистрирован [2019-02-03 05:01] · скачан: 282 раз
Статус: √ проверено
Размер: 1.46 GB
Как cкачать? Как скачать Дитя во времени через торрент | UTorrent

% Раздел Тема Автор DL S | L
Фильмы [HD 720p, 1080p] (Хороший звук DUB, MVO) [ 9.39 GB ] Дитя во времени / The Child in Time [2017 BDRip 1080p] MVO [Первый канал] bober100 Скачать
1 | 0

28-11-2019 20:33  

Отключить всю рекламу на сайте

    Дорогой пользователь! Огромная просьба, поблагодарите релизера, оцените раздачу и оставьте свои комментарий, если Вы скачали Дитя во времени через торрент бесплатно! Внесите свою лепту в развитие PiratBit!
    Комментировать посты могут только пользователи прошедшие не сложную регистрацию
    Показать сообщения:    

    Дитя во времени через торрент
    Скачать бесплатно Дитя во времени
    Дитя во времени скачать торрент
    Дитя во времени смотреть онлайн
    Cкачать фильм Дитя во времени бесплатно
    Дитя во времени скачать торрент в хорошем качестве
    Дитя во времени смотреть онлайн бесплатно в хорошем качестве


    Вы не можете начинать темы
    Вы не можете отвечать на сообщения
    Вы не можете редактировать свои сообщения
    Вы не можете удалять свои сообщения
    Вы не можете голосовать в опросах
    Вы не можете прикреплять файлы к сообщениям
    Вы можете скачивать файлы