новый адрес
Мега распродажа FORZA HORIZON 4 ULTIMATE+ВСЕ DLC+ОНЛАЙН всего за 499р. 349 руб. (супер цена). Внимание количество ограничено!!!

iTunes

1+1

iTunes

мы

iTunes

1

iTunes

Чернобыль

iTunes

Ральф против интернета

Лицензия

ПШазам

Лицензия

Игра престолов

Лицензия

30
pack

ВАЖНО

!!Акция!!

Alien_RageХит недели

RePack

Resident Evil 21

ИГРА 18+

pack

RePack

Metro:Exodus

!!Акция!!

Alien_Rage

RePack

fifa19

RePack

Assassins Creed: Odyssey

RePack

NEED FOR SPEED™ PAYBACK

3 сезон

9 сезон

Бесстыжие 9 сезон

Все сериалы

все сериалы на PB.wtf

RePack

FAR CRY 5
Ребята, катастрофически не хватает 1900р. для оплаты серверов за Октябрь (всвязи с блокировками трафик упал в 3 раза), 1-2р., выручайте.
  

Прошлым летом (Виктор Трегубович) [1962, СССР, короткометражка, SATRip от AVP Studio] pb.wtf

Прошлым летом через торрент pb.wtf

Размер: 373 MB | Добавлен: 9 мес. назад | Торрент скачан:5 раз
Скачать  

03-02-2019 08:45 Прошлым летом Скачать торрент  

Прошлым летом
Страна: СССР
Производство: Ленфильм

Жанр: короткометражка
Год выпуска: 1962
Продолжительность: 00:28:43

Перевод: Не требуется
Cубтитры: нет
Оригинальная аудиодорожка: русский

Режиссер: Виктор Трегубович

В ролях:
Татьяна Никитина, Семён Морозов, Виталий Каневский, Людмила Колпакова, Долорес Столбова...
Об актёрах подробней

Описание:
Выпуск фильма - 17 июня 1963 г. О том, что Гриша и Полина любят друг друга, уже знает вся деревня. Скрывать свои чувства и поздно и глупо — так думает Полина, а Гриша пока еще не решил, кто для него важнее — старые дружки или эта девчонка, которая даже не может постоять за себя.

Исходник: DVB
Качество видео: SATRip
Формат видео: AVI

Видео: 704x528 (4:3), 25,000 кадров/сек, XviD ~ 1614 kbps avg, 0.174 bit/pixel
Аудио: 48 kHz, Dolby Digital AC3 2.0, 192 kbps

Раздача от:
Общее
Полное имя : Proshlym.letom.1962.SATRip_[New-team]_by_AVP_Studio.avi
Формат : AVI
Формат/Информация : Audio Video Interleave
Размер файла : 373 Мбайт
Продолжительность : 28 м. 42 с.
Общий поток : 1815 Кбит/сек
Программа кодирования : VirtualDubMod 1.5.10.3 | www.virtualdub-fr.org || (build 2550/release)
Библиотека кодирования : VirtualDubMod build 2550/release

Видео
Идентификатор : 0
Формат : MPEG-4 Visual
Профиль формата : Advanced Simple@L5
Настройки формата : BVOP1 / Custom Matrix
Параметр BVOP формата : 1
Параметр QPel формата : Нет
Параметр GMC формата : Без точки перехода
Параметр матрицы формата : Выборочная
Идентификатор кодека : XVID
Идентификатор кодека/Подсказка : XviD
Продолжительность : 28 м. 42 с.
Битрейт : 1614 Кбит/сек
Ширина : 704 пикселя
Высота : 528 пикселей
Соотношение сторон : 4:3
Частота кадров : 25,000 кадров/сек
Цветовое пространство : YUV
Субдискретизация насыщенности : 4:2:0
Битовая глубина : 8 бит
Тип развёртки : Прогрессивная
Метод сжатия : С потерями
Бит/(Пиксели*Кадры) : 0.174
Размер потока : 331 Мбайт (89%)
Библиотека кодирования : XviD 73

Аудио
Идентификатор : 1
Формат : AC-3
Формат/Информация : Audio Coding 3
Коммерческое название : Dolby Digital
Идентификатор кодека : 2000
Продолжительность : 28 м. 42 с.
Вид битрейта : Постоянный
Битрейт : 192 Кбит/сек
Каналы : 2 канала
Channel layout : L R
Частота : 48,0 КГц
Частота кадров : 31,250 кадров/сек (1536 SPF)
Битовая глубина : 16 бит
Метод сжатия : С потерями
Размер потока : 39,4 Мбайт (11%)
Выравнивание : Разделение по промежуткам
Продолжительность промежутка : 40 мс. (1,00 видеокадр)
Время предзагрузки промежутка : 500 мс
pb.wtf



Скачать Прошлым летом через торрент http://picplus.ru/img/1902/03/562b3db2.png Скачать фильм Прошлым летом через торрент бесплантно в хорошем качестве Описание:Выпуск фильма - 17 июня 1963 г. О том, что Гриша и Полина любят друг друга, уже знает вся деревня. Скрывать свои чувства и поздно ... 10 10 1
Info! Золотая раздача, скачанное не засчитывается.
Торрент: Зарегистрирован [2019-02-03 08:45] · скачан: 5 раз
Статус: √ проверено
Размер: 373 MB
Как cкачать? Как скачать Прошлым летом через торрент | qTorrent

% Раздел Тема Автор DL S | L
Классика зарубежного кино [ 7.55 GB ] Внезапно прошлым летом / Suddenly Last Summer [1959 экранизация BDRip 720p от KORSAR][MVO] HollySmoke Скачать
1 | 0
Фильмы [HD 720p, 1080p] (Хороший звук DUB, MVO) [ 5.05 GB ] Я знаю что вы сделали прошлым летом / I Know What You Did Last Summer [1997 BDRip-HEVC 1080p ] MVO bober100 Скачать
1 | 0
Кино СССР [ 372 MB ] Прошлым летом [1962 СССР короткометражка SATRip-AVC от AVP Studio] AVP Studio Скачать
1 | 0
Сборники отечественного шансона [ 2.74 GB ] VA - Золотой фонд. Кумиры прошлых лет 24 CD 1996-2001 / MP3 / 320 kbps / Retro megatoxa Скачать
1 | 1
Классика зарубежного кино [ 1.45 GB ] Внезапно прошлым летом / Suddenly Last Summer [1959 BDRip] MVO koenig Скачать
1 | 0
Русское любительское видео [ 50 MB ] Прошлым летом [2017 Amateur Homemade Russian CamRip 720p] nn99nn Скачать
1 | 0
Наши фильмы (HD, WEB-DL 720p, 1080p) [ 3.88 GB ] Прошлым летом в Чулимске [2013 HDTV 1080p ] Ворон Скачать
1 | 0


>> Регистрируемся здесь <<






Отзывы и комментарии о схеме читаем и пишем здесь: ---> Отзывы и комментарии о схеме

Новые благодарочки в телеграм довольных пользователей:
скриншот   скриншот   скриншот   скриншот   скриншот
    Дорогой пользователь! Огромная просьба, поблагодарите релизера, оцените раздачу и оставьте свои комментарий, если Вы скачали Прошлым летом через торрент бесплатно! Внесите свою лепту в развитие PiratBit!
    Комментировать посты могут только пользователи прошедшие не сложную регистрацию
    Показать сообщения:    

    Прошлым летом через торрент
    Скачать бесплатно Прошлым летом
    Прошлым летом скачать торрент
    Прошлым летом смотреть онлайн
    Cкачать фильм Прошлым летом бесплатно
    Прошлым летом скачать торрент в хорошем качестве
    Прошлым летом смотреть онлайн бесплатно в хорошем качестве


    Вы не можете начинать темы
    Вы не можете отвечать на сообщения
    Вы не можете редактировать свои сообщения
    Вы не можете удалять свои сообщения
    Вы не можете голосовать в опросах
    Вы не можете прикреплять файлы к сообщениям
    Вы можете скачивать файлы