новый адрес
Ссылка на приватное зеркало всего за 1$. Внимание количество ограничено!!!

iTunes

1+1

iTunes

мы

WEB-DL

1

iTunes

Чернобыль

iTunes

Ральф против интернета

Лицензия

ПШазам

Лицензия

Оно 2

Лицензия

30
pack

Вам бонус

ВАЖНО

!!Акция!!

Alien_RageХит недели

RePack

Resident Evil 21

ИГРА 18+

pack

RePack

jed

!!Акция!!

Alien_Rage

RePack

fifa19

RePack

Assassins Creed: Odyssey

RePack

NEED FOR SPEED™ PAYBACK

3 сезон

9 сезон

Бесстыжие 9 сезон

Все сериалы

все сериалы на PB.wtf

RePack

FAR CRY 5
Ребята, катастрофически не хватает 1900р. для оплаты серверов за Октябрь (всвязи с блокировками трафик упал в 3 раза), 1-2р., выручайте.
  

Долгая идиотская дорога / The Long Dumb Road (Ханна Фидель) [2018, комедия, BDRip-AVC] MVO [HDRezka Studio] pb.wtf

Долгая идиотская дорога через торрент pb.wtf

Размер: 1.61 GB | Добавлен: 10 мес. назад | Торрент скачан:180 раз
Скачать  

03-02-2019 10:51 Долгая идиотская дорога Скачать торрент  

Долгая идиотская дорога / The Long Dumb Road Год выпуска: 2018
Страна: США
Жанр: комедия
Продолжительность: 01:30:41
Перевод: Профессиональный (многоголосый) | HDRezka Studio
Субтитры: Английские (полные, SDH)

Режиссер: Ханна Фидель

rating

В ролях:

Таисса Фармига, Кейси Уилсон, Джейсон Манцукас, Рон Ливингстон, Грэйс Гаммер, Сиэра Браво, Тони Револори, Памела Рид, Линдси Бёрдж, Лора Каннингэм

Описание:

Девятнадцатилетний фотограф Натан покидает родительский дом и отправляется в лос-анджелесский художественный колледж, надеясь, что обучение там поможет ему найти свое призвание. Когда в дороге машина парня ломается, он встречает бродячего механика Ричарда, который обещает починить неисправность, если Натан довезет его до ближайшей автостанции. Так и начинается совместное путешествие двух незнакомых и совершенно разных людей, которое подарит им множество веселых приключений, а также поможет обоим разобраться в себе и найти верный жизненный путь.

Качество: BDRip-AVC
Формат: MKV

Видео: 1024x426 (2.40:1), 23,976 fps, x264 ~1 907 Кбит/сек, 0.182 bit/pixel
Аудио#1: 48 kHz, AC3 Dolby Digital, 2 (L,R) ch, ~192.00 kbps avg | RUS (HDRezka Studio)
Аудио#2: 48 kHz, AC3 Dolby Digital, 3/2 (L,C,R,l,r) + LFE ch, ~448.00 kbps avg | ENG
скриншот  скриншот  скриншот  скриншот  скриншот  

Общее
Уникальный идентификатор : 132297327477525664514956506906959769660 (0x638789D832242DC786D57DC78953703C)
Полное имя : F:\OlLanDGroup\The.Long.Dumb.Road.2018.BDRip(AVC).OlLanDGroup.mkv
Формат : Matroska
Версия формата : Version 4 / Version 2
Размер файла : 1,61 Гбайт
Продолжительность : 1 ч. 30 м.
Общий поток : 2549 Кбит/сек
Название фильма : The.Long.Dumb.Road.2018 #TorpedoUK#
Дата кодирования : UTC 2019-02-03 10:14:11
Программа кодирования : mkvmerge v29.0.0 ('Like It Or Not') 64-bit
Библиотека кодирования : libebml v1.3.6 + libmatroska v1.4.9

Видео
Идентификатор : 1
Формат : AVC
Формат/Информация : Advanced Video Codec
Профиль формата : High@L4.1
Параметр CABAC формата : Да
Параметр ReFrames формата : 10 кадров
Идентификатор кодека : V_MPEG4/ISO/AVC
Продолжительность : 1 ч. 30 м.
Битрейт : 1907 Кбит/сек
Ширина : 1024 пикселя
Высота : 426 пикселей
Соотношение сторон : 2,40:1
Режим частоты кадров : Постоянный
Частота кадров : 23,976 (24000/1001) кадра/сек
Цветовое пространство : YUV
Субдискретизация насыщенности : 4:2:0
Битовая глубина : 8 бит
Тип развёртки : Прогрессивная
Бит/(Пиксели*Кадры) : 0.182
Размер потока : 1,21 Гбайт (75%)
Библиотека кодирования : x264 core 146 r2538 121396c
Настройки программы : cabac=1 / ref=10 / deblock=1:-3:-3 / analyse=0x3:0x113 / me=umh / subme=11 / psy=1 / psy_rd=0.99:0.03 / mixed_ref=1 / me_range=48 / chroma_me=1 / trellis=2 / 8x8dct=1 / cqm=0 / deadzone=21,11 / fast_pskip=1 / chroma_qp_offset=-3 / threads=6 / lookahead_threads=1 / sliced_threads=0 / nr=0 / decimate=1 / interlaced=0 / bluray_compat=0 / constrained_intra=0 / bframes=11 / b_pyramid=2 / b_adapt=2 / b_bias=0 / direct=3 / weightb=1 / open_gop=0 / weightp=2 / keyint=240 / keyint_min=23 / scenecut=40 / intra_refresh=0 / rc_lookahead=40 / rc=2pass / mbtree=0 / bitrate=1907 / ratetol=1.0 / qcomp=0.60 / qpmin=0 / qpmax=69 / qpstep=4 / cplxblur=20.0 / qblur=0.5 / vbv_maxrate=50000 / vbv_bufsize=62500 / nal_hrd=none / filler=0 / ip_ratio=1.40 / pb_ratio=1.30 / aq=1:1.00
Язык : English
Default : Да
Forced : Нет

Аудио #1
Идентификатор : 2
Формат : AC-3
Формат/Информация : Audio Coding 3
Расширение режима : CM (complete main)
Параметр Endianness формата : Big
Идентификатор кодека : A_AC3
Продолжительность : 1 ч. 30 м.
Вид битрейта : Постоянный
Битрейт : 192 Кбит/сек
Каналы : 2 канала
Расположение каналов : Front: L R
Частота : 48,0 КГц
Частота кадров : 31,250 кадров/сек (1536 spf)
Битовая глубина : 16 бит
Метод сжатия : С потерями
Размер потока : 125 Мбайт (8%)
Заголовок : MVO [HDRezka Studio]
Язык : Russian
Default : Да
Forced : Нет

Аудио #2
Идентификатор : 3
Формат : AC-3
Формат/Информация : Audio Coding 3
Расширение режима : CM (complete main)
Параметр Endianness формата : Big
Идентификатор кодека : A_AC3
Продолжительность : 1 ч. 30 м.
Вид битрейта : Постоянный
Битрейт : 448 Кбит/сек
Каналы : 6 каналов
Расположение каналов : Front: L C R, Side: L R, LFE
Частота : 48,0 КГц
Частота кадров : 31,250 кадров/сек (1536 spf)
Битовая глубина : 16 бит
Метод сжатия : С потерями
Размер потока : 291 Мбайт (18%)
Заголовок : [Original]
Язык : English
Default : Нет
Forced : Нет

Текст #1
Идентификатор : 4
Формат : UTF-8
Идентификатор кодека : S_TEXT/UTF8
Идентификатор кодека/Информация : UTF-8 Plain Text
Продолжительность : 1 ч. 26 м.
Битрейт : 85 бит/сек
Count of elements : 1527
Размер потока : 53,9 Кбайт (0%)
Заголовок : Full
Язык : English
Default : Нет
Forced : Нет

Текст #2
Идентификатор : 5
Формат : UTF-8
Идентификатор кодека : S_TEXT/UTF8
Идентификатор кодека/Информация : UTF-8 Plain Text
Продолжительность : 1 ч. 26 м.
Битрейт : 93 бит/сек
Count of elements : 1664
Размер потока : 58,9 Кбайт (0%)
Заголовок : SDH
Язык : English
Default : Нет
Forced : Нет

Меню
00:00:00.000 : :Глава 01
00:08:17.663 : :Глава 02
00:15:44.610 : :Глава 03
00:23:55.809 : :Глава 04
00:31:00.608 : :Глава 05
00:40:05.236 : :Глава 06
00:50:31.153 : :Глава 07
00:52:36.820 : :Глава 08
00:59:25.353 : :Глава 09
01:06:49.630 : :Глава 10
01:15:29.566 : :Глава 11
01:26:02.240 : :Глава 12

pb.wtf



Скачать Долгая идиотская дорога через торрент https://i84.fastpic.ru/big/2019/0203/24/26fcaeeb7ca919b9c1db027f5dd61024.jpg Скачать фильм Долгая идиотская дорога через торрент бесплантно в хорошем качестве Описание: Девятнадцатилетний фотограф Натан покидает родительский дом и отправляется в лос-анджелесский художественный колледж, надеясь, ... 8.2 10 5
Торрент: Зарегистрирован [2019-02-03 10:51] · скачан: 180 раз
Статус: T временная
Размер: 1.61 GB
Как cкачать? Как скачать Долгая идиотская дорога через торрент | qTorrent

28-11-2019 20:33  

Отключить всю рекламу на сайте

    Дорогой пользователь! Огромная просьба, поблагодарите релизера, оцените раздачу и оставьте свои комментарий, если Вы скачали Долгая идиотская дорога через торрент бесплатно! Внесите свою лепту в развитие PiratBit!
    Комментировать посты могут только пользователи прошедшие не сложную регистрацию
    Показать сообщения:    

    Долгая идиотская дорога через торрент
    Скачать бесплатно Долгая идиотская дорога
    Долгая идиотская дорога скачать торрент
    Долгая идиотская дорога смотреть онлайн
    Cкачать фильм Долгая идиотская дорога бесплатно
    Долгая идиотская дорога скачать торрент в хорошем качестве
    Долгая идиотская дорога смотреть онлайн бесплатно в хорошем качестве


    Вы не можете начинать темы
    Вы не можете отвечать на сообщения
    Вы не можете редактировать свои сообщения
    Вы не можете удалять свои сообщения
    Вы не можете голосовать в опросах
    Вы не можете прикреплять файлы к сообщениям
    Вы можете скачивать файлы