Ссылка на приватное зеркало всего за 1$. Внимание количество ограничено!!!

iTunes

1+1

iTunes

мы

WEB-DL

1

iTunes

Чернобыль

iTunes

Ральф против интернета

Лицензия

ПШазам

Лицензия

Оно 2

Лицензия

30
pack

Вам бонус

ВАЖНО

!!Акция!!

Alien_RageХит недели

RePack

Resident Evil 21

ИГРА 18+

pack

RePack

jed

!!Акция!!

Alien_Rage

RePack

fifa19

RePack

Assassins Creed: Odyssey

RePack

NEED FOR SPEED™ PAYBACK

3 сезон

9 сезон

Бесстыжие 9 сезон

Все сериалы

все сериалы на PB.wtf

RePack

FAR CRY 5
Ребята, катастрофически не хватает 1900р. для оплаты серверов за Октябрь (всвязи с блокировками трафик упал в 3 раза), 1-2р., выручайте.
  

Под Сильвер-Лэйк / Under the Silver Lake (Дэвид Роберт Митчелл) [2018, триллер, драма, комедия, криминал, детектив, BDRip-AVC] MVO [HDRezka Studio] +DUB [iTunes] pb.wtf

Под Сильвер-Лэйк через торрент pb.wtf

Размер: 2.7 GB | Добавлен: 10 мес. назад | Торрент скачан:200 раз
Скачать  

03-02-2019 15:13 Под Сильвер-Лэйк Скачать торрент  

Под Сильвер-Лэйк / Under the Silver Lake Год выпуска: 2018
Страна: США
Жанр: триллер, драма, комедия, криминал, детектив
Продолжительность: 02:19:22
Перевод:

Дублированный | iTunes
Профессиональный (многоголосый, закадровый) | HDRezka Studio

Субтитры: Русские (полные), Английские (полные)

Режиссер: Дэвид Роберт Митчелл

rating

В ролях:

Эндрю Гарфилд, Венди Ванден Хювел, Дебора Геффнер, Райли Кио, Рики Линдхоум, Джаннин Кота, Крис Гэнн, Калли Эрнандес, Джессика Макинсон, Риз Хартвиг

Описание:

Сэм знакомится с девушкой, которая на следующий день исчезает при загадочных обстоятельствах. Теперь он одержим идеей непременно отыскать её, и пытается обнаружить хоть какие-то зацепки, во всем, что он видит и слышит. Неожиданно он находит что-то вроде кода или цепочки тайных посланий. Открывая каждое последующее сообщение, для него всё очевиднее становится, что он оказался внутри глобального заговора.

Качество: BDRip-AVC
Формат: MKV

Видео: 1024x428 (2.40:1), 23,976 fps, x264 ~1 748 Кбит/сек, 0.166 bit/pixel
Аудио#1: 48 kHz, AC3 Dolby Digital, 3/2 (L,C,R,l,r) + LFE ch, ~384.00 kbps avg | RUS (iTunes)
Аудио#2: 48 kHz, AC3 Dolby Digital, 2 (L,R) ch, ~192.00 kbps avg | RUS (HDRezka Studio)
Аудио#3: 48 kHz, AC3 Dolby Digital, 3/2 (L,C,R,l,r) + LFE ch, ~448.00 kbps avg | ENG
скриншот  скриншот  скриншот  скриншот  скриншот  

Общее
Уникальный идентификатор : 17590935692593996794866346859923844863 (0xD3BE417442CD205CFFE4BAD29B12EFF)
Полное имя : F:OlLanDGroupUnder.the.Silver.Lake.2018.BDRip(AVC).OlLanDGroup.mkv
Формат : Matroska
Версия формата : Version 4 / Version 2
Размер файла : 2,70 Гбайт
Продолжительность : 2 ч. 19 м.
Общий поток : 2774 Кбит/сек
Название фильма : Under the Silver Lake (2018) #TorpedoUK#
Дата кодирования : UTC 2019-02-03 14:54:27
Программа кодирования : mkvmerge v29.0.0 ('Like It Or Not') 64-bit
Библиотека кодирования : libebml v1.3.6 + libmatroska v1.4.9

Видео
Идентификатор : 1
Формат : AVC
Формат/Информация : Advanced Video Codec
Профиль формата : High@L4.1
Параметр CABAC формата : Да
Параметр ReFrames формата : 10 кадров
Идентификатор кодека : V_MPEG4/ISO/AVC
Продолжительность : 2 ч. 19 м.
Битрейт : 1748 Кбит/сек
Ширина : 1024 пикселя
Высота : 428 пикселей
Соотношение сторон : 2,40:1
Режим частоты кадров : Постоянный
Частота кадров : 23,976 (24000/1001) кадра/сек
Цветовое пространство : YUV
Субдискретизация насыщенности : 4:2:0
Битовая глубина : 8 бит
Тип развёртки : Прогрессивная
Бит/(Пиксели*Кадры) : 0.166
Размер потока : 1,70 Гбайт (63%)
Библиотека кодирования : x264 core 146 r2538 121396c
Настройки программы : cabac=1 / ref=10 / deblock=1:-3:-3 / analyse=0x3:0x113 / me=umh / subme=11 / psy=1 / psy_rd=0.99:0.04 / mixed_ref=1 / me_range=48 / chroma_me=1 / trellis=2 / 8x8dct=1 / cqm=0 / deadzone=21,11 / fast_pskip=1 / chroma_qp_offset=-3 / threads=6 / lookahead_threads=1 / sliced_threads=0 / nr=0 / decimate=1 / interlaced=0 / bluray_compat=0 / constrained_intra=0 / bframes=11 / b_pyramid=2 / b_adapt=2 / b_bias=0 / direct=3 / weightb=1 / open_gop=0 / weightp=2 / keyint=240 / keyint_min=23 / scenecut=40 / intra_refresh=0 / rc_lookahead=40 / rc=2pass / mbtree=0 / bitrate=1748 / ratetol=1.0 / qcomp=0.60 / qpmin=0 / qpmax=69 / qpstep=4 / cplxblur=20.0 / qblur=0.5 / vbv_maxrate=50000 / vbv_bufsize=62500 / nal_hrd=none / filler=0 / ip_ratio=1.40 / pb_ratio=1.30 / aq=1:1.00
Язык : English
Default : Да
Forced : Нет

Аудио #1
Идентификатор : 2
Формат : AC-3
Формат/Информация : Audio Coding 3
Расширение режима : CM (complete main)
Параметр Endianness формата : Big
Идентификатор кодека : A_AC3
Продолжительность : 2 ч. 19 м.
Вид битрейта : Постоянный
Битрейт : 384 Кбит/сек
Каналы : 6 каналов
Расположение каналов : Front: L C R, Side: L R, LFE
Частота : 48,0 КГц
Частота кадров : 31,250 кадров/сек (1536 spf)
Битовая глубина : 16 бит
Метод сжатия : С потерями
Размер потока : 383 Мбайт (14%)
Заголовок : DUB [iTunes]
Язык : Russian
Default : Да
Forced : Нет

Аудио #2
Идентификатор : 3
Формат : AC-3
Формат/Информация : Audio Coding 3
Расширение режима : CM (complete main)
Параметр Endianness формата : Big
Идентификатор кодека : A_AC3
Продолжительность : 2 ч. 19 м.
Вид битрейта : Постоянный
Битрейт : 192 Кбит/сек
Каналы : 2 канала
Расположение каналов : Front: L R
Частота : 48,0 КГц
Частота кадров : 31,250 кадров/сек (1536 spf)
Битовая глубина : 16 бит
Метод сжатия : С потерями
Размер потока : 191 Мбайт (7%)
Заголовок : MVO [HDRezka Studio]
Язык : Russian
Default : Нет
Forced : Нет

Аудио #3
Идентификатор : 4
Формат : AC-3
Формат/Информация : Audio Coding 3
Расширение режима : CM (complete main)
Параметр Endianness формата : Big
Идентификатор кодека : A_AC3
Продолжительность : 2 ч. 19 м.
Вид битрейта : Постоянный
Битрейт : 448 Кбит/сек
Каналы : 6 каналов
Расположение каналов : Front: L C R, Side: L R, LFE
Частота : 48,0 КГц
Частота кадров : 31,250 кадров/сек (1536 spf)
Битовая глубина : 16 бит
Метод сжатия : С потерями
Размер потока : 447 Мбайт (16%)
Заголовок : [Original]
Язык : English
Default : Нет
Forced : Нет

Текст #1
Идентификатор : 5
Формат : UTF-8
Идентификатор кодека : S_TEXT/UTF8
Идентификатор кодека/Информация : UTF-8 Plain Text
Продолжительность : 2 ч. 15 м.
Битрейт : 66 бит/сек
Count of elements : 1269
Размер потока : 65,3 Кбайт (0%)
Заголовок : Full
Язык : Russian
Default : Нет
Forced : Нет

Текст #2
Идентификатор : 6
Формат : UTF-8
Идентификатор кодека : S_TEXT/UTF8
Идентификатор кодека/Информация : UTF-8 Plain Text
Продолжительность : 2 ч. 14 м.
Битрейт : 43 бит/сек
Count of elements : 1359
Размер потока : 43,4 Кбайт (0%)
Заголовок : Full
Язык : English
Default : Нет
Forced : Нет

Меню
00:00:00.000 : en:Chapter 1
00:09:17.015 : en:Chapter 2
00:18:07.169 : en:Chapter 3
00:28:09.897 : en:Chapter 4
00:37:20.613 : en:Chapter 5
00:44:13.818 : en:Chapter 6
00:54:04.158 : en:Chapter 7
01:04:16.102 : en:Chapter 8
01:13:33.242 : en:Chapter 9
01:22:21.854 : en:Chapter 10
01:29:52.846 : en:Chapter 11
01:36:43.798 : en:Chapter 12
01:43:59.859 : en:Chapter 13
01:54:45.712 : en:Chapter 14
02:07:37.316 : en:Chapter 15

pb.wtf



Скачать Под Сильвер-Лэйк через торрент https://i84.fastpic.ru/big/2019/0117/51/27e192c74aa152e2e37ad58df80cc651.jpeg Скачать фильм Под Сильвер-Лэйк через торрент бесплантно в хорошем качестве Описание: Сэм знакомится с девушкой, которая на следующий день исчезает при загадочных обстоятельствах. Теперь он одержим идеей непременно ... 8.2 10 5
Торрент: Зарегистрирован [2019-02-03 15:13] · скачан: 200 раз
Статус: √ проверено
Размер: 2.7 GB
Как cкачать? Как скачать Под Сильвер-Лэйк через торрент | qTorrent

% Раздел Тема Автор DL S | L
Фильмы [HD 720p, 1080p] (Хороший звук DUB, MVO) [ 12.55 GB ] Под Сильвер-Лэйк / Under the Silver Lake [2018 BDRip 1080p] bober100 Скачать
1 | 0
Фильмы [HD 720p, 1080p] (Хороший звук DUB, MVO) [ 7.09 GB ] Под Сильвер-Лэйк / Under the Silver Lake [2018 BDRip 720p] bober100 Скачать
5 | 0
Фильмы 2018 [DVDrip, WEB-DLRip, HDrip] (DUB, MVO) [ 2.12 GB ] Под Сильвер-Лэйк / Under the Silver Lake [2018 BDRip] - Twi7ter Скачать
1 | 0
Фильмы 2018 [DVDrip, WEB-DLRip, HDrip] (DUB, MVO) [ 1.46 GB ] Под Сильвер-Лэйк / Under the Silver Lake [2018 BDRip] - Twi7ter Скачать
5 | 0
Фильмы 2018 [DVDrip, WEB-DLRip, HDrip] (DUB, MVO) [ 793 MB ] Под Сильвер-Лэйк / Under the Silver Lake [2018 HDRip] bober100 Скачать
1 | 0
Фильмы 2018 [DVDrip, WEB-DLRip, HDrip] (DUB, MVO) [ 2.12 GB ] Под Сильвер-Лэйк / Under the Silver Lake [2018 BDRip] bober100 Скачать
1 | 0
Фильмы 2018 [DVDrip, WEB-DLRip, HDrip] (DUB, MVO) [ 1.46 GB ] Под Сильвер-Лэйк / Under the Silver Lake [2018 BDRip] bober100 Скачать
66 | 0

28-11-2019 20:33  

Отключить всю рекламу на сайте

    Дорогой пользователь! Огромная просьба, поблагодарите релизера, оцените раздачу и оставьте свои комментарий, если Вы скачали Под Сильвер-Лэйк через торрент бесплатно! Внесите свою лепту в развитие PiratBit!
    Комментировать посты могут только пользователи прошедшие не сложную регистрацию
    Показать сообщения:    

    Под Сильвер-Лэйк через торрент
    Скачать бесплатно Под Сильвер-Лэйк
    Под Сильвер-Лэйк скачать торрент
    Под Сильвер-Лэйк смотреть онлайн
    Cкачать фильм Под Сильвер-Лэйк бесплатно
    Под Сильвер-Лэйк скачать торрент в хорошем качестве
    Под Сильвер-Лэйк смотреть онлайн бесплатно в хорошем качестве


    Вы не можете начинать темы
    Вы не можете отвечать на сообщения
    Вы не можете редактировать свои сообщения
    Вы не можете удалять свои сообщения
    Вы не можете голосовать в опросах
    Вы не можете прикреплять файлы к сообщениям
    Вы можете скачивать файлы