новый адрес
Ссылка на приватное зеркало всего за 1$. Внимание количество ограничено!!!

iTunes

1+1

iTunes

мы

WEB-DL

1

iTunes

Чернобыль

iTunes

Ральф против интернета

Лицензия

ПШазам

Лицензия

Оно 2

Лицензия

30
pack

Вам бонус

ВАЖНО

!!Акция!!

Alien_RageХит недели

RePack

Resident Evil 21

ИГРА 18+

pack

RePack

jed

!!Акция!!

Alien_Rage

RePack

fifa19

RePack

Assassins Creed: Odyssey

RePack

NEED FOR SPEED™ PAYBACK

3 сезон

9 сезон

Бесстыжие 9 сезон

Все сериалы

все сериалы на PB.wtf

RePack

FAR CRY 5
Ребята, катастрофически не хватает 1900р. для оплаты серверов за Октябрь (всвязи с блокировками трафик упал в 3 раза), 1-2р., выручайте.
  

Богемская рапсодия / Bohemian Rhapsody (Брайан Сингер) [2018, драма, биография, музыка, BDRip-AVC] DUB (rus, ukr) [Лицензия] - ExKinoRay pb.wtf

Богемская рапсодия через торрент pb.wtf

Размер: 2.88 GB | Добавлен: 10 мес. назад | Торрент скачан:170 раз
Скачать  

03-02-2019 22:21 Богемская рапсодия Скачать торрент  

Информация о фильме
Название: Богемская рапсодия
Оригинальное название: Bohemian Rhapsody
Год выхода: 2018
Жанр: биография, драма, музыка
Режиссер: Брайан Сингер
Сценарий: Энтони МакКартен, Питер Морган
В ролях: Рами Малек, Люси Бойнтон, Гвилим Ли, Бен Харди, Джозеф Маццелло, Эйдан Гиллен, Аллен Лич, Том Холландер, Майк Майерс, Аарон МакКаскер и др.

Описание:
Чествование группы Queen, их музыки и их выдающегося вокалиста Фредди Меркьюри, который бросил вызов стереотипам и победил условности, чтобы стать одним из самых любимых артистов на планете. Фильм прослеживает головокружительный путь группы к успеху благодаря их культовым песням и революционному звуку, практически распад коллектива, поскольку образ жизни Меркьюри выходит из-под контроля, и их триумфальное воссоединение накануне концерта Live Aid, ставшим одним из величайших выступлений в истории рок-музыки.

rating

Страна: Великобритания, США
Продолжительность: 02:14:37
Перевод: Профессиональный (полное дублирование) [Лицензия]

Формат: MKV
Качество: WEB-DLRip-AVC
Видео: MPEG-4 AVC, 1024x428 (2.40:1), 23.976 fps, 1720 Kbps, 0.164 bit/pixel
Аудио #01: 48 kHz, AC3, 5.1, 448 Kbps | лицензия | RUS |
Аудио #02: 48 kHz, AC3, 5.1, 448 Kbps | лицензия | UKR |
Аудио #03: 48 kHz, AC3, 5.1, 448 Kbps | Оригинал | ENG |
Субтитры: Русские (Forced, full), украинские (Forced, full), английские (SDH, SDH Colored)

Реклама отсутствует.
На роль Фредди Меркьюри (1946-1991) был утверждён Саша Барон Коэн, однако ему пришлось покинуть проект из-за разногласий с гитаристом Queen Брайаном Мэем и ударником Роджером Тейлором. Всю концепцию фильма с Коэном в главной роли пришлось отбросить после того, как Мэй выразил недовольство тем, что это будет байопик только о Меркьюри, а не о всей группе.

Фильм обязан своим названием композиции Bohemian Rhapsody из альбома A Night at the Opera (1975), написанной Фредди Меркьюри.

Изначально ленту снимал Брайан Сингер, но незадолго до окончания съемок студия уволила режиссера, и вместо него байопик доделывал Декстер Флетчер.

Официальный саундтрек к фильму содержит несколько хитов Queen и 11 ранее неизданных записей, в том числе пять треков из их 21-минутного живого выступления в июле 1985 года. Выпущен Hollywood Records на компакт-диске, кассете и в цифровом формате 19 октября 2018 года.

Самой первой отснятой сценой был концерт на «Уэмбли». Поскольку «Уэмбли» образца 1985 года уже не существовало, на лётном поле на севере Лондона была возведена его точная копия. Когда Боб Гелдоф и продюсер Live Aid посетили место съёмок, они были поражены точностью реконструкции.

Подготовка к съёмкам началась в июле 2017, а съёмочный период стартовал в Лондоне в сентябре.
General
Unique ID : 213300371419122383675483561711579131805 (0xA07828414E81F864B5B90AFC2DB36F9D)
Complete name : D:\Bohemian.Rhapsody.2018.BDRip.AVC.ExKinoRay.mkv
Format : Matroska
Format version : Version 2
File size : 2.88 GiB
Duration : 2 h 14 min
Overall bit rate : 3 066 kb/s
Movie name : Bohemian Rhapsody (2018) from ExKinoRay
Encoded date : UTC 2019-02-07 21:06:44
Writing application : mkvmerge v5.6.0 ('Kenya Kane') built on May 27 2012 16:44:04
Writing library : libebml v1.2.3 + libmatroska v1.3.0

Video
ID : 1
Format : AVC
Format/Info : Advanced Video Codec
Format profile : High@L4.1
Format settings, CABAC : Yes
Format settings, ReFrames : 12 frames
Codec ID : V_MPEG4/ISO/AVC
Duration : 2 h 14 min
Bit rate : 1 720 kb/s
Width : 1 024 pixels
Height : 428 pixels
Display aspect ratio : 2.40:1
Frame rate mode : Constant
Frame rate : 23.976 (23976/1000) FPS
Color space : YUV
Chroma subsampling : 4:2:0
Bit depth : 8 bits
Scan type : Progressive
Bits/(Pixel*Frame) : 0.164
Stream size : 1.56 GiB (54%)
Title : Enigma
Writing library : x264 core 152 r2851 ba24899
Encoding settings : cabac=1 / ref=12 / deblock=1:-2:-2 / analyse=0x3:0x113 / me=umh / subme=10 / psy=1 / psy_rd=1.03:0.05 / mixed_ref=1 / me_range=32 / chroma_me=1 / trellis=2 / 8x8dct=1 / cqm=0 / deadzone=21,11 / fast_pskip=0 / chroma_qp_offset=-3 / threads=12 / lookahead_threads=3 / sliced_threads=0 / nr=0 / decimate=0 / interlaced=0 / bluray_compat=0 / constrained_intra=0 / bframes=10 / b_pyramid=2 / b_adapt=2 / b_bias=0 / direct=3 / weightb=1 / open_gop=0 / weightp=2 / keyint=240 / keyint_min=23 / scenecut=40 / intra_refresh=0 / rc=2pass / mbtree=0 / bitrate=1720 / ratetol=1.0 / qcomp=0.60 / qpmin=0 / qpmax=51 / qpstep=4 / cplxblur=20.0 / qblur=0.5 / ip_ratio=1.40 / pb_ratio=1.30 / aq=1:1.00
Language : English
Default : Yes
Forced : No
Color range : Limited
Color primaries : BT.709
Transfer characteristics : BT.709
Matrix coefficients : BT.709

Audio #1
ID : 2
Format : AC-3
Format/Info : Audio Coding 3
Mode extension : CM (complete main)
Format settings, Endianness : Big
Codec ID : A_AC3
Duration : 2 h 14 min
Bit rate mode : Constant
Bit rate : 448 kb/s
Channel(s) : 6 channels
Channel positions : Front: L C R, Side: L R, LFE
Sampling rate : 48.0 kHz
Frame rate : 31.250 FPS (1536 spf)
Compression mode : Lossy
Stream size : 431 MiB (15%)
Title : Dub (Blu-ray)
Language : Russian
Default : Yes
Forced : No

Audio #2
ID : 3
Format : AC-3
Format/Info : Audio Coding 3
Mode extension : CM (complete main)
Format settings, Endianness : Big
Codec ID : A_AC3
Duration : 2 h 14 min
Bit rate mode : Constant
Bit rate : 448 kb/s
Channel(s) : 6 channels
Channel positions : Front: L C R, Side: L R, LFE
Sampling rate : 48.0 kHz
Frame rate : 31.250 FPS (1536 spf)
Compression mode : Lossy
Stream size : 431 MiB (15%)
Language : Ukrainian
Default : No
Forced : No

Audio #3
ID : 4
Format : AC-3
Format/Info : Audio Coding 3
Mode extension : CM (complete main)
Format settings, Endianness : Big
Codec ID : A_AC3
Duration : 2 h 14 min
Bit rate mode : Constant
Bit rate : 448 kb/s
Channel(s) : 6 channels
Channel positions : Front: L C R, Side: L R, LFE
Sampling rate : 48.0 kHz
Frame rate : 31.250 FPS (1536 spf)
Compression mode : Lossy
Stream size : 431 MiB (15%)
Language : English
Default : No
Forced : No

Text #1
ID : 5
Format : UTF-8
Codec ID : S_TEXT/UTF8
Codec ID/Info : UTF-8 Plain Text
Title : Forced
Language : Russian
Default : Yes
Forced : No

Text #2
ID : 6
Format : UTF-8
Codec ID : S_TEXT/UTF8
Codec ID/Info : UTF-8 Plain Text
Title : Full
Language : Russian
Default : No
Forced : No

Text #3
ID : 7
Format : UTF-8
Codec ID : S_TEXT/UTF8
Codec ID/Info : UTF-8 Plain Text
Title : Forced
Language : Ukrainian
Default : No
Forced : No

Text #4
ID : 8
Format : UTF-8
Codec ID : S_TEXT/UTF8
Codec ID/Info : UTF-8 Plain Text
Title : Full
Language : Ukrainian
Default : No
Forced : No

Text #5
ID : 9
Format : UTF-8
Codec ID : S_TEXT/UTF8
Codec ID/Info : UTF-8 Plain Text
Title : SDH
Language : English
Default : No
Forced : No

Text #6
ID : 10
Format : UTF-8
Codec ID : S_TEXT/UTF8
Codec ID/Info : UTF-8 Plain Text
Title : SDH (colored)
Language : English
Default : No
Forced : No

Menu
00:00:00.000 : en:Chapter 01
00:03:48.728 : en:Chapter 02
00:07:45.465 : en:Chapter 03
00:11:16.593 : en:Chapter 04
00:17:41.811 : en:Chapter 05
00:21:03.179 : en:Chapter 06
00:27:24.184 : en:Chapter 07
00:33:34.846 : en:Chapter 08
00:37:22.282 : en:Chapter 09
00:45:24.013 : en:Chapter 10
00:52:19.595 : en:Chapter 11
00:56:57.205 : en:Chapter 12
01:03:11.413 : en:Chapter 13
01:10:44.991 : en:Chapter 14
01:15:25.730 : en:Chapter 15
01:21:45.901 : en:Chapter 16
01:26:59.172 : en:Chapter 17
01:32:18.199 : en:Chapter 18
01:36:43.923 : en:Chapter 19
01:43:25.574 : en:Chapter 20
01:50:23.283 : en:Chapter 21
01:54:22.898 : en:Chapter 22
02:00:41.109 : en:Chapter 23
02:07:53.332 : en:Chapter 24
Релиз от:

Автор релиза: pb.wtf



Скачать Богемская рапсодия через торрент http://img10.lostpic.net/2019/01/25/1fc2755b65c3c0d536bb902940425f95.jpg Скачать фильм Богемская рапсодия через торрент бесплантно в хорошем качестве Описание:Чествование группы Queen, их музыки и их выдающегося вокалиста Фредди Меркьюри, который бросил вызов стереоам и победил ... 9.2 10 13
Info! Золотая раздача, скачанное не засчитывается.
Торрент: Зарегистрирован [2019-02-07 21:28] · скачан: 170 раз
Статус: √ проверено
Размер: 2.88 GB
Как cкачать? Как скачать Богемская рапсодия через торрент | qTorrent

% Раздел Тема Автор DL S | L
Фильмы [HD 720p, 1080p] (Хороший звук DUB, MVO) [ 5.52 GB ] Богемская рапсодия / Bohemian Rhapsody [2018 биография музыка BDRip 720p Dub MVO AVO] от ExKinoRay morfyi Скачать
6 | 0
Фильмы 2018 [DVDrip, WEB-DLRip, HDrip] (DUB, MVO) [ 2.41 GB ] Богемская рапсодия / Bohemian Rhapsody [2018 биография музыка WEB-DLRip-AVC] DUB - ExKinoRay Enigma2010 Скачать
9 | 0


Последний раз редактировалось: Enigma2010 (2019-02-07 21:29), всего редактировалось 2 раз(а)

28-11-2019 20:33  

Отключить всю рекламу на сайте

04-02-2019 19:30 Богемская рапсодия Скачать торрент  

"в истории рок-музыки" - эээ, а где тут рок?pb.wtf



07-02-2019 21:29 Богемская рапсодия Скачать торрент  

Замена на лицензию.pb.wtf



    Дорогой пользователь! Огромная просьба, поблагодарите релизера, оцените раздачу и оставьте свои комментарий, если Вы скачали Богемская рапсодия через торрент бесплатно! Внесите свою лепту в развитие PiratBit!
    Комментировать посты могут только пользователи прошедшие не сложную регистрацию
    Показать сообщения:    

    Богемская рапсодия через торрент
    Скачать бесплатно Богемская рапсодия
    Богемская рапсодия скачать торрент
    Богемская рапсодия смотреть онлайн
    Cкачать фильм Богемская рапсодия бесплатно
    Богемская рапсодия скачать торрент в хорошем качестве
    Богемская рапсодия смотреть онлайн бесплатно в хорошем качестве


    Вы не можете начинать темы
    Вы не можете отвечать на сообщения
    Вы не можете редактировать свои сообщения
    Вы не можете удалять свои сообщения
    Вы не можете голосовать в опросах
    Вы не можете прикреплять файлы к сообщениям
    Вы можете скачивать файлы