Ссылка на приватное зеркало нашего сайта всего за 1$. Внимание количество ограничено!!!

2 сезон

iTunes

1 сезон

1

2 сезон

2 сезон

iTunes

1 сезон

RePack

30

Новинка

ВАЖНО

ИГРА 18+

pack

RePack

MK11
pack

Забери бонус

RePack

jed

!!Акция!!

Alien_Rage

RePack

fifa19

RePack

Assassins Creed: Odyssey

RePack

NEED FOR SPEED™ PAYBACK

4 сезон

9 сезон

Бесстыжие 9 сезон

Все сериалы

все сериалы на PB.wtf

RePack

FAR CRY 5
  

Чужестранка / Outlander / Сезон: 4 / Серии: 1-13 из 13 (Ричард Кларк, Анна Ферстер, Джон Дал) [2018, Фэнтези, драма, мелодрама, WEBRip 1080p] MVO [TVShows] pb.wtf

Чужестранка через торрент pb.wtf

Размер: 55.73 GB | Добавлен: 1 год 9 мес. назад | Торрент скачан:9 раз
Скачать  

04-02-2019 05:56 Чужестранка Скачать торрент  

Чужестранка / Outlander Год выпуска: 2018
Страна: США, Великобритания
Жанр: Фэнтези, драма, мелодрама
Продолжительность: ~ 01:00:00
Перевод: Профессиональный (многоголосый закадровый) | TVShows
Субтитры: английские

Режиссёр: Ричард Кларк, Анна Ферстер, Джон Дал

rating

В ролях:

Катрина Балф, Сэм Юэн, Тобиаш Мензес, Гари Льюис, Грэм Мактавиш, Лотта Вербек, Дункан Лакруа, Грант О’Рурк, Стивен Уолтерс

Описание:

В центре сюжета Клэр Бичем Рэндалл, служившая медсестрой в действующей армии во время Второй мировой войны. По непонятным причинам молодая женщина перемещается из 1945 года в 1743 год. Там назревает гражданская война, и Клэр встречает раненого шотландца Джейми Фрейзера. Теперь ей нужно научиться жить в новом мире по новым правилам.

Качество: WEBRip 1080p
Контейнер: MKV

Видео: MPEG-4 AVC, 1920x1080 (16:9), 23.976 fps, 10310 Kbps
Аудио 1: AC3, 48.0 KHz, 6 ch, 384 kbps [Rus]
Аудио 2: AC3, 48.0 KHz, 6 ch, 384 kbps [Eng]
General
Unique ID : 281745886210336405791917794941928259192 (0xD3F648AD6931B3836FFA34039B64BE78)
Complete name : F:\Ou\Outlander.S04E01.1080p.TVShows.mkv
Format : Matroska
Format version : Version 4 / Version 2
File size : 4.82 GiB
Duration : 1 h 2 min
Overall bit rate : 11.1 Mb/s
Encoded date : UTC 2018-11-16 21:33:41
Writing application : mkvmerge v28.2.0 ('The Awakening') 64-bit
Writing library : libebml v1.3.6 + libmatroska v1.4.9

Video
ID : 1
Format : AVC
Format/Info : Advanced Video Codec
Format profile : High@L4.1
Format settings : CABAC / 4 Ref Frames
Format settings, CABAC : Yes
Format settings, ReFrames : 4 frames
Codec ID : V_MPEG4/ISO/AVC
Duration : 1 h 2 min
Bit rate : 10.3 Mb/s
Width : 1 920 pixels
Height : 1 080 pixels
Display aspect ratio : 16:9
Frame rate mode : Constant
Frame rate : 23.976 (24000/1001) FPS
Color space : YUV
Chroma subsampling : 4:2:0
Bit depth : 8 bits
Scan type : Progressive
Bits/(Pixel*Frame) : 0.207
Stream size : 4.49 GiB (93%)
Writing library : x264 core 152 r2851kMod ba24899
Encoding settings : cabac=1 / ref=4 / deblock=1:-3:-3 / analyse=0x3:0x133 / me=umh / subme=10 / psy=1 / fade_compensate=0.00 / psy_rd=1.00:0.00 / mixed_ref=1 / me_range=48 / chroma_me=1 / trellis=2 / 8x8dct=1 / cqm=0 / deadzone=21,11 / fast_pskip=0 / chroma_qp_offset=-2 / threads=12 / lookahead_threads=2 / sliced_threads=0 / nr=0 / decimate=0 / interlaced=0 / bluray_compat=0 / constrained_intra=0 / bframes=8 / b_pyramid=2 / b_adapt=2 / b_bias=0 / direct=3 / weightb=1 / open_gop=0 / weightp=2 / keyint=250 / keyint_min=23 / scenecut=40 / intra_refresh=0 / rc=crf / mbtree=0 / crf=18.0000 / qcomp=0.60 / qpmin=0 / qpmax=69 / qpstep=4 / ip_ratio=1.30 / pb_ratio=1.20 / aq=3:0.80
Language : English
Default : Yes
Forced : No

Audio #1
ID : 2
Format : AC-3
Format/Info : Audio Coding 3
Codec ID : A_AC3
Duration : 1 h 2 min
Bit rate mode : Constant
Bit rate : 384 kb/s
Channel(s) : 6 channels
Channel positions : Front: L C R, Side: L R, LFE
Sampling rate : 48.0 kHz
Frame rate : 31.250 FPS (1536 SPF)
Bit depth : 16 bits
Compression mode : Lossy
Stream size : 172 MiB (3%)
Title : TVShows
Language : Russian
Service kind : Complete Main
Default : Yes
Forced : Yes

Audio #2
ID : 3
Format : AC-3
Format/Info : Audio Coding 3
Codec ID : A_AC3
Duration : 1 h 2 min
Bit rate mode : Constant
Bit rate : 384 kb/s
Channel(s) : 6 channels
Channel positions : Front: L C R, Side: L R, LFE
Sampling rate : 48.0 kHz
Frame rate : 31.250 FPS (1536 SPF)
Bit depth : 16 bits
Compression mode : Lossy
Stream size : 172 MiB (3%)
Title : Original
Language : English
Service kind : Complete Main
Default : No
Forced : No

Text
ID : 4
Format : UTF-8
Codec ID : S_TEXT/UTF8
Codec ID/Info : UTF-8 Plain Text
Duration : 1 h 0 min
Bit rate : 65 b/s
Count of elements : 929
Stream size : 29.2 KiB (0%)
Title : English
Language : English
Default : No
Forced : No
Внимание! Раздача ведётся путём добавления новых серий; при каждом добавлении создаётся новый торрент. Чтобы начать докачку новой серии, пользователям необходимо сделать следующее:
(1) остановить скачивание,
(2) удалить старый торрент у себя из клиента (старые серии удалять не надо),
(3) скачать новый торрент и запустить его у себя в клиенте вместо старого, при этом указать клиенту путь в старую папку куда и должно происходить скачивание новых серий.

Ваш клиент при этом должен произвести хеширование (проверку) старой папки (если не производит сам - помогите ему сделать это), и будет докачивать только те серии которых у вас ещё нет. Старые серии при этом не удаляются, а продолжают раздаваться!

Eсли вы уже удалили старые серии, то предотвратить повторную закачку старых серий можно, отжав галочку в соответствующих местах при запуске нового торрента. По возможности, желательно не удалять старые серии как можно дольше чтобы релизёр не столько продолжал раздавать старые серии, а смог сконцентрироваться на новых.
pb.wtf



Скачать Чужестранка через торрент https://i5.imageban.ru/out/2018/11/10/e97f819894257bf9b6098dbbaac9c35d.png Скачать фильм Чужестранка через торрент бесплантно в хорошем качестве Описание: В центре сюжета Клэр Бичем Рэндалл, служившая медсестрой в действующей армии во время Второй мировой войны. По непонятным ... 10 10 2
Info! Золотая раздача, скачанное не засчитывается.
Торрент: Зарегистрирован [2019-02-04 05:56] · скачан: 9 раз
Статус: √ проверено
Размер: 55.73 GB
Как cкачать? Как скачать Чужестранка через торрент | qTorrent

% Раздел Тема Автор DL S | L
Зарубежные сериалы [ 9.25 GB ] Чужестранка / Outlander / Сезон: 4 / Серии: 1-13 из 13 [2018 WEB-DLRip] MVO [NewStudio] bober100 Скачать
1 | 0
Зарубежные сериалы [ 25.77 GB ] Чужестранка / Outlander / Сезон: 4 / Серии: 1-13 из 13 [2018 WEB-DL 720p] MVO [Jaskie] bober100 Скачать
1 | 0
Зарубежные сериалы [ 10.6 GB ] Чужестранка / Outlander / Сезон: 4 / Серии: 1-13 из 13 [2018 WEB-DLRip] MVO [Jaskier] bober100 Скачать
1 | 0
Зарубежные сериалы [ 55.73 GB ] Чужестранка / Outlander / Сезон: 4 / Серии: 1-13 из 13 [2018 WEBRip 1080p] MVO [NewStudio] bober100 Скачать
1 | 0
Зарубежные сериалы [ 8.55 GB ] Чужестранка / Outlander / Сезон: 4 / Серии 1-13 из 13 [2018 WEBRip] MVO [BaibaKo] GEKADOL Скачать
1 | 0

28-11-2019 20:33  

Отключить всю рекламу на сайте

    Дорогой пользователь! Огромная просьба, поблагодарите релизера, оцените раздачу и оставьте свои комментарий, если Вы скачали Чужестранка через торрент бесплатно! Внесите свою лепту в развитие PiratBit!
    Комментировать посты могут только пользователи прошедшие не сложную регистрацию
    Показать сообщения:    

    Чужестранка через торрент
    Скачать бесплатно Чужестранка
    Чужестранка скачать торрент
    Чужестранка смотреть онлайн
    Cкачать фильм Чужестранка бесплатно
    Чужестранка скачать торрент в хорошем качестве
    Чужестранка смотреть онлайн бесплатно в хорошем качестве


    Вы не можете начинать темы
    Вы не можете отвечать на сообщения
    Вы не можете редактировать свои сообщения
    Вы не можете удалять свои сообщения
    Вы не можете голосовать в опросах
    Вы не можете прикреплять файлы к сообщениям
    Вы можете скачивать файлы